Singularity (2017)

PG-13 | Sci-Fi | 3 November 2017 (USA)

In 2020, Elias van Dorne (John Cusack), CEO of VA Industries, the world’s largest robotics company, introduces his most powerful invention–Kronos, a super computer designed to end all wars. When Kronos goes online, it quickly determines that mankind, itself, is the biggest threat to world peace and launches a worldwide robot attack to rid the world of the “infection” of man. Ninety-seven years later, a small band of humans remain alive but on the run from the robot army. A teenage boy, Andrew (Julian Schaffner) and a teenage girl, Calia (Jeannine Wacker), form an unlikely alliance to reach a new world, where it is rumored mankind exists without fear of robot persecution. But does this world actually exist? And will they live long enough to find out?

Media information

General
Format : Matroska
Format version : Version 4 / Version 2
File size : 819 MiB
Duration : 1 h 32 min
Overall bit rate : 1 238 kb/s
Movie name : Singularity.2017.720p.10bit.BluRay.6CH.x265.HEVC
Encoded date : UTC 2017-12-17 10:51:46
Writing application : mkvmerge v18.0.0 (‘Apricity’) 32-bit
Writing library : libebml v1.3.5 + libmatroska v1.4.8

Video
ID : 1
Format : HEVC
Format/Info : High Efficiency Video Coding
Format profile : Main [email protected]@Main
Codec ID : V_MPEGH/ISO/HEVC
Duration : 1 h 32 min
Bit rate : 1 014 kb/s
Width : 1 280 pixels
Height : 536 pixels
Display aspect ratio : 2.40:1
Frame rate mode : Constant
Frame rate : 23.976 (24000/1001) FPS
Color space : YUV
Chroma subsampling : 4:2:0
Bit depth : 10 bits
Bits/(Pixel*Frame) : 0.062
Stream size : 671 MiB (82%)
Default : Yes
Forced : No

Audio
ID : 2
Format : AAC
Format/Info : Advanced Audio Codec
Format profile : HE-AAC / LC
Format settings : Explicit
Codec ID : A_AAC-2
Duration : 1 h 32 min
Bit rate : 221 kb/s
Channel(s) : 6 channels
Channel(s)_Original : 18 channels
Channel positions : Front: 14, Side: C, Back: C, LFE= 2
Sampling rate : 48.0 kHz / 24.0 kHz
Frame rate : 23.438 FPS (1024 SPF)
Compression mode : Lossy
Delay relative to video : 23 ms
Stream size : 146 MiB (18%)
Default : Yes
Forced : No

Text
ID : 3
Format : UTF-8
Codec ID : S_TEXT/UTF8
Codec ID/Info : UTF-8 Plain Text
Duration : 1 h 27 min
Bit rate : 33 b/s
Count of elements : 697
Stream size : 21.3 KiB (0%)
Language : English
Default : Yes
Forced : No

[collapse]
Download Link(s)

[collapse]
Magnet Link

 

Magnet

Source : Singularity.2017.1080p.BluRay.X264-AMIABLE-6.57 GB

[collapse]

Media information

General
Format : Matroska
Format version : Version 4 / Version 2
File size : 680 MiB
Duration : 1 h 32 min
Overall bit rate : 1 028 kb/s
Movie name : Singularity.2017.720p.WEB-DL.2CH.x265
Encoded date : UTC 2017-11-03 19:40:40
Writing application : mkvmerge v17.0.0 (‘Be Ur Friend’) 32-bit
Writing library : libebml v1.3.5 + libmatroska v1.4.8

Video
ID : 1
Format : HEVC
Format/Info : High Efficiency Video Coding
Format profile : [email protected]@Main
Codec ID : V_MPEGH/ISO/HEVC
Duration : 1 h 32 min
Bit rate : 948 kb/s
Width : 1 280 pixels
Height : 536 pixels
Display aspect ratio : 2.40:1
Frame rate mode : Constant
Frame rate : 23.976 (24000/1001) FPS
Color space : YUV
Chroma subsampling : 4:2:0
Bit depth : 8 bits
Bits/(Pixel*Frame) : 0.058
Stream size : 627 MiB (92%)
Default : Yes
Forced : No

Audio
ID : 2
Format : AAC
Format/Info : Advanced Audio Codec
Format profile : HE-AAC / LC
Format settings : Explicit
Codec ID : A_AAC-2
Duration : 1 h 32 min
Bit rate : 78.2 kb/s
Channel(s) : 2 channels
Channel positions : Front: L R
Sampling rate : 48.0 kHz / 24.0 kHz
Frame rate : 23.438 FPS (1024 SPF)
Compression mode : Lossy
Delay relative to video : 23 ms
Stream size : 51.7 MiB (8%)
Default : Yes
Forced : No

Text
ID : 3
Format : UTF-8
Codec ID : S_TEXT/UTF8
Codec ID/Info : UTF-8 Plain Text
Duration : 1 h 27 min
Bit rate : 36 b/s
Count of elements : 697
Stream size : 23.6 KiB (0%)
Language : English
Default : Yes
Forced : No

[collapse]
Download Link(s)

[collapse]
Magnet Link

 

Magnet

Source : Singularity.2017.1080p.WEB-DL.DD5.1.H264-FGT-3.16 GB

[collapse]

You may also like...

error: nah :p~