Slasher.com (2017)

1h 29min | Horror, Thriller | 16 January 2017 (UK)

After meeting online, Jack and Kristy go on a weekend getaway to the woodlands of rural Missouri. While discovering each other, they soon learn of the terrorizing horrors that the forest has in store.

Watch trailer

Media information

General
Format : Matroska
Format version : Version 4 / Version 2
File size : 892 MiB
Duration : 1 h 29 min
Overall bit rate : 1 393 kb/s
Movie name : Slasher.c0m.2017.720p.WEB-DL.2CH.x264.AVC
Encoded date : UTC 2018-02-01 16:31:01
Writing application : mkvmerge v20.0.0 (‘I Am The Sun’) 32-bit
Writing library : libebml v1.3.5 + libmatroska v1.4.8

Video
ID : 1
Format : AVC
Format/Info : Advanced Video Codec
Format profile : [email protected]
Format settings : CABAC / 5 Ref Frames
Format settings, CABAC : Yes
Format settings, RefFrames : 5 frames
Codec ID : V_MPEG4/ISO/AVC
Duration : 1 h 29 min
Bit rate : 1 280 kb/s
Width : 1 280 pixels
Height : 720 pixels
Display aspect ratio : 16:9
Frame rate mode : Constant
Frame rate : 23.976 (23976/1000) FPS
Color space : YUV
Chroma subsampling : 4:2:0
Bit depth : 8 bits
Scan type : Progressive
Bits/(Pixel*Frame) : 0.058
Stream size : 808 MiB (90%)
Writing library : x264 core 148 r2643 5c65704
Default : Yes
Forced : No

Audio
ID : 2
Format : AAC
Format/Info : Advanced Audio Codec
Format profile : LC
Codec ID : A_AAC-2
Duration : 1 h 29 min
Bit rate : 132 kb/s
Channel(s) : 2 channels
Channel positions : Front: L R
Sampling rate : 44.1 kHz
Frame rate : 43.066 FPS (1024 SPF)
Compression mode : Lossy
Delay relative to video : -23 ms
Stream size : 83.3 MiB (9%)
Language : English
Default : Yes
Forced : No

Text
ID : 3
Format : UTF-8
Codec ID : S_TEXT/UTF8
Codec ID/Info : UTF-8 Plain Text
Duration : 1 h 28 min
Bit rate : 58 b/s
Count of elements : 1493
Stream size : 38.3 KiB (0%)
Default : Yes
Forced : No

[collapse]
Download Link(s)

Download

Direct download files get automatically deleted after a month or so. Posted on : 02/01/2018

[collapse]
Magnet Link

Magnet

Source : Slasher.com.2017.1080p.WEBRip.DD5.1.x264-FGT- 3.32 GB

[collapse]

You may also like...

error: nah :p~