Star Wars: The Last Jedi (2017)

Star Wars: Episode VIII – The Last Jedi (original title)|PG-13 | 2h 32min | Action, Adventure, Fantasy | 15 December 2017 (USA)

Rey develops her newly discovered abilities with the guidance of Luke Skywalker, who is unsettled by the strength of her powers. Meanwhile, the Resistance prepares for battle with the First Order.

Watch trailer

Media information

General
Format : Matroska
Format version : Version 4 / Version 2
File size : 2.02 GiB
Duration : 2 h 31 min
Overall bit rate : 1 904 kb/s
Movie name : Star.Wars.Episode.VIII.The.Last.Jedi.2017.1080p.BrRip.6CH.x265.HEVC
Encoded date : UTC 2018-03-11 15:34:19
Writing application : mkvmerge v21.0.0 (‘Tardigrades Will Inherit The Earth’) 32-bit
Writing library : libebml v1.3.5 + libmatroska v1.4.8

Video
ID : 1
Format : HEVC
Format/Info : High Efficiency Video Coding
Format profile : [email protected]@Main
Codec ID : V_MPEGH/ISO/HEVC
Duration : 2 h 31 min
Bit rate : 1 696 kb/s
Width : 1 920 pixels
Height : 808 pixels
Display aspect ratio : 2.40:1
Frame rate mode : Constant
Frame rate : 23.976 (24000/1001) FPS
Color space : YUV
Chroma subsampling : 4:2:0
Bit depth : 8 bits
Bits/(Pixel*Frame) : 0.046
Stream size : 1.80 GiB (89%)
Default : Yes
Forced : No

Audio
ID : 2
Format : AAC
Format/Info : Advanced Audio Codec
Format profile : HE-AAC / LC
Format settings : NBC
Codec ID : A_AAC-2
Duration : 2 h 31 min
Bit rate : 206 kb/s
Channel(s) : 6 channels
Channel(s)_Original : 18 channels
Channel positions : Front: 14, Side: C, Back: C, LFE= 2
Sampling rate : 48.0 kHz / 24.0 kHz
Frame rate : 23.438 FPS (1024 SPF)
Compression mode : Lossy
Delay relative to video : 23 ms
Stream size : 224 MiB (11%)
Default : Yes
Forced : No

Text #1
ID : 3
Format : UTF-8
Codec ID : S_TEXT/UTF8
Codec ID/Info : UTF-8 Plain Text
Duration : 2 h 20 min
Bit rate : 39 b/s
Count of elements : 1570
Stream size : 40.5 KiB (0%)
Title : ENG
Language : English
Default : Yes
Forced : No

Text #2
ID : 4
Format : UTF-8
Codec ID : S_TEXT/UTF8
Codec ID/Info : UTF-8 Plain Text
Duration : 2 h 23 min
Bit rate : 45 b/s
Count of elements : 1897
Stream size : 47.9 KiB (0%)
Title : ENG SDH
Language : English
Default : No
Forced : No

[collapse]
Download Link(s)

Part02 Part03  Part04

Direct download files get automatically deleted after a month or so. Posted on : 03/11/2018

[collapse]
Magnet Link

Magnet

Source : Star.Wars.The.Last.Jedi.2017.iNTERNAL.1080p.BluRay.x264-SPRiNTER-17.28 GB

[collapse]

Media information

General
Format : Matroska
Format version : Version 4 / Version 2
File size : 846 MiB
Duration : 2 h 31 min
Overall bit rate : 779 kb/s
Movie name : Star.Wars.The.Last.Jedi.2017.720p.BluRay.2CH.x265.HEVC
Encoded date : UTC 2018-03-10 13:38:10
Writing application : mkvmerge v21.0.0 (‘Tardigrades Will Inherit The Earth’) 32-bit
Writing library : libebml v1.3.5 + libmatroska v1.4.8 / Lavf57.83.100

Video
ID : 1
Format : HEVC
Format/Info : High Efficiency Video Coding
Format profile : [email protected]@Main
Codec ID : V_MPEGH/ISO/HEVC
Duration : 2 h 31 min
Bit rate : 646 kb/s
Width : 1 280 pixels
Height : 536 pixels
Display aspect ratio : 2.40:1
Frame rate mode : Variable
Frame rate : 23.976 FPS
Color space : YUV
Chroma subsampling : 4:2:0
Bit depth : 8 bits
Bits/(Pixel*Frame) : 0.039
Stream size : 702 MiB (83%)
Writing library : x265 2.5+27-0e168bdeb48b:[Linux][GCC 6.4.0][64 bit] 8bit+10bit+12bit
Language : English
Default : Yes
Forced : No

Audio
ID : 2
Format : AAC
Format/Info : Advanced Audio Codec
Format profile : LC
Codec ID : A_AAC-2
Duration : 2 h 31 min
Bit rate : 132 kb/s
Channel(s) : 2 channels
Channel positions : Front: L R
Sampling rate : 48.0 kHz
Frame rate : 46.875 FPS (1024 SPF)
Compression mode : Lossy
Stream size : 141 MiB (17%)
Writing library : Lavc57.107.100 aac
Language : English
Default : Yes
Forced : No

Text
ID : 3
Format : UTF-8
Codec ID : S_TEXT/UTF8
Codec ID/Info : UTF-8 Plain Text
Duration : 2 h 23 min
Bit rate : 45 b/s
Count of elements : 1897
Stream size : 47.9 KiB (0%)
Default : Yes
Forced : No

[collapse]
Download Link(s)

Download

Direct download files get automatically deleted after a month or so. Posted on : 03/10/2018

[collapse]
Magnet Link

Magnet

Source : Star.Wars.The.Last.Jedi.2017.1080p.BluRay.x264-SPARKS-10.96 GB

[collapse]

You may also like...

error: nah :p~