Storozhova zastava (2017)

1h 51min | Fantasy | 12 October 2017 (Ukraine)

The Stronghold is a Ukrainian adventure/fantasy film based on the same-name book. A present-day schoolboy Vit’ko goes a thousand years into past.

Watch trailer

Media information

General
Format : Matroska
Format version : Version 4 / Version 2
File size : 853 MiB
Duration : 1 h 46 min
Overall bit rate : 1 117 kb/s
Movie name : Storozhova.Zastava.aka.The Stronghold.2017.720p.WEB-DL.2CH.x264.AVC
Encoded date : UTC 2018-01-22 20:26:35
Writing application : mkvmerge v20.0.0 (‘I Am The Sun’) 32-bit
Writing library : libebml v1.3.5 + libmatroska v1.4.8

Video
ID : 3
Format : AVC
Format/Info : Advanced Video Codec
Format profile : [email protected]
Format settings : CABAC / 8 Ref Frames
Format settings, CABAC : Yes
Format settings, RefFrames : 8 frames
Codec ID : V_MPEG4/ISO/AVC
Duration : 1 h 46 min
Bit rate : 1 052 kb/s
Width : 1 280 pixels
Height : 556 pixels
Display aspect ratio : 2.35:1
Frame rate mode : Constant
Frame rate : 25.000 FPS
Color space : YUV
Chroma subsampling : 4:2:0
Bit depth : 8 bits
Scan type : Progressive
Bits/(Pixel*Frame) : 0.059
Stream size : 802 MiB (94%)
Writing library : x264 core 148 r2708 86b7198
Default : Yes
Forced : No
Color range : Limited
Color primaries : BT.709
Transfer characteristics : BT.709
Matrix coefficients : BT.709

Audio
ID : 2
Format : AAC
Format/Info : Advanced Audio Codec
Format profile : HE-AAC / LC
Format settings : Explicit
Codec ID : A_AAC-2
Duration : 1 h 46 min
Bit rate : 64.0 kb/s
Channel(s) : 2 channels
Channel positions : Front: L R
Sampling rate : 48.0 kHz / 24.0 kHz
Frame rate : 23.438 FPS (1024 SPF)
Compression mode : Lossy
Delay relative to video : 31 ms
Stream size : 48.8 MiB (6%)
Language : Ukrainian
Default : Yes
Forced : No

Text
ID : 1
Format : UTF-8
Codec ID : S_TEXT/UTF8
Codec ID/Info : UTF-8 Plain Text
Duration : 1 h 41 min
Bit rate : 35 b/s
Count of elements : 991
Stream size : 26.1 KiB (0%)
Language : English
Default : Yes
Forced : No

[collapse]
Download Link(s)

Download

Direct download files get automatically deleted after a month or so. Posted on : 01/23/2018

[collapse]
Magnet Link

Magnet

Source : Storozhova zastava (2017) WEB-DLRip-AVC [Hurtom]-1.5 GB

[collapse]

Release Notes

Language: Ukrainian

Subtitles: English

[collapse]

You may also like...

error: nah :p~