Submergence (2017)

1h 52min | Drama, Romance, Thriller | 13 April 2018 (USA)

In a room with no windows on the eastern coast of Africa, a Scotsman, James More, is held captive by jihadist fighters. Thousands of miles away in the Greenland Sea, Danielle Flinders prepares to dive in a submersible to the ocean floor. In their confines they are drawn back to the Christmas of the previous year, where a chance encounter on a beach in France led to an intense and enduring romance.

Watch trailer

Media information

General
Format : Matroska
Format version : Version 4 / Version 2
File size : 790 MiB
Duration : 1 h 51 min
Overall bit rate : 989 kb/s
Movie name : Submergence.2017.720p.WEB-DL.2CH.x265.HEVC
Encoded date : UTC 2018-04-14 09:49:46
Writing application : mkvmerge v22.0.0 (‘At The End Of The World’) 32-bit
Writing library : libebml v1.3.5 + libmatroska v1.4.8

Video
ID : 1
Format : HEVC
Format/Info : High Efficiency Video Coding
Format profile : [email protected]@Main
Codec ID : V_MPEGH/ISO/HEVC
Duration : 1 h 51 min
Bit rate : 912 kb/s
Width : 1 280 pixels
Height : 688 pixels
Display aspect ratio : 1.85:1
Frame rate mode : Constant
Frame rate : 23.976 (24000/1001) FPS
Color space : YUV
Chroma subsampling : 4:2:0
Bit depth : 8 bits
Bits/(Pixel*Frame) : 0.043
Stream size : 728 MiB (92%)
Default : Yes
Forced : No

Audio
ID : 2
Format : AAC
Format/Info : Advanced Audio Codec
Format profile : HE-AAC / LC
Format settings : Explicit
Codec ID : A_AAC-2
Duration : 1 h 51 min
Bit rate : 75.7 kb/s
Channel(s) : 2 channels
Channel positions : Front: L R
Sampling rate : 48.0 kHz / 24.0 kHz
Frame rate : 23.438 FPS (1024 SPF)
Compression mode : Lossy
Delay relative to video : 23 ms
Stream size : 60.4 MiB (8%)
Default : Yes
Forced : No

Text
ID : 3
Format : UTF-8
Codec ID : S_TEXT/UTF8
Codec ID/Info : UTF-8 Plain Text
Duration : 1 h 45 min
Bit rate : 38 b/s
Count of elements : 962
Stream size : 30.1 KiB (0%)
Language : English
Default : Yes
Forced : No

[collapse]
Download Link(s)

Download

Direct download files get automatically deleted after a month or so. Posted on : 04/14/2018

[collapse]
Magnet Link

Magnet

Source : Submergence.2017.1080p.WEB-DL.DD5.1.H264-FGT-4.39 GB

[collapse]

You may also like...

error: nah :p~