Sugar Mountain (2016)

Unrated | 1h 46min | Drama, Thriller | 9 December 2016 (USA)

Two brothers, down on their luck, fake a disappearance in the Alaskan wilderness so they’ll have a great survival story to sell, but the hoax turns out to be more real than they planned.

Watch trailer

Media information

General
Format : Matroska
Format version : Version 4 / Version 2
File size : 953 MiB
Duration : 1 h 46 min
Overall bit rate : 1 251 kb/s
Movie name : Sugar.Mountain.2016.720p.BluRay.2CH.x264.AVC
Encoded date : UTC 2018-04-24 17:12:44
Writing application : mkvmerge v22.0.0 (‘At The End Of The World’) 32-bit
Writing library : libebml v1.3.5 + libmatroska v1.4.8

Video
ID : 1
Format : AVC
Format/Info : Advanced Video Codec
Format profile : [email protected]
Format settings : CABAC / 9 Ref Frames
Format settings, CABAC : Yes
Format settings, RefFrames : 9 frames
Codec ID : V_MPEG4/ISO/AVC
Duration : 1 h 46 min
Bit rate : 1 149 kb/s
Width : 1 280 pixels
Height : 536 pixels
Display aspect ratio : 2.40:1
Frame rate mode : Constant
Frame rate : 23.976 (24000/1001) FPS
Color space : YUV
Chroma subsampling : 4:2:0
Bit depth : 8 bits
Scan type : Progressive
Bits/(Pixel*Frame) : 0.070
Stream size : 875 MiB (92%)
Default : Yes
Forced : No

Audio
ID : 2
Format : AAC
Format/Info : Advanced Audio Codec
Format profile : HE-AAC / LC
Format settings : Explicit
Codec ID : A_AAC-2
Duration : 1 h 46 min
Bit rate : 100.0 kb/s
Channel(s) : 2 channels
Channel positions : Front: L R
Sampling rate : 48.0 kHz / 24.0 kHz
Frame rate : 23.438 FPS (1024 SPF)
Compression mode : Lossy
Delay relative to video : 31 ms
Stream size : 76.2 MiB (8%)
Language : English
Default : Yes
Forced : No

Text
ID : 3
Format : UTF-8
Codec ID : S_TEXT/UTF8
Codec ID/Info : UTF-8 Plain Text
Duration : 1 h 41 min
Bit rate : 45 b/s
Count of elements : 1344
Stream size : 33.9 KiB (0%)
Default : Yes
Forced : No

[collapse]
Download Link(s)

Download

Direct download files get automatically deleted after a month or so. Posted on : 04/24/2018

[collapse]
Magnet Link

Magnet

Source : Sugar.Mountain.2016.1080p.BluRay.x264-GETiT-7.95 GB

[collapse]

You may also like...

error: nah :p~