Tango One (2018)

1h 52min | Crime, Drama | 19 March 2018 (UK)

Three officers are assigned to go undercover and join a mission to capture Den Donovan.

Watch trailer

Media information

General
Format : Matroska
Format version : Version 4 / Version 2
File size : 1.03 GiB
Duration : 1 h 52 min
Overall bit rate : 1 312 kb/s
Movie name : Tango.One.2018.720p.BluRay.2CH.x264.AVC
Encoded date : UTC 2018-06-01 12:13:50
Writing application : mkvmerge v23.0.0 (‘The Bride Said No’) 32-bit
Writing library : libebml v1.3.6 + libmatroska v1.4.9

Video
ID : 1
Format : AVC
Format/Info : Advanced Video Codec
Format profile : [email protected]
Format settings : CABAC / 8 Ref Frames
Format settings, CABAC : Yes
Format settings, RefFrames : 8 frames
Codec ID : V_MPEG4/ISO/AVC
Duration : 1 h 52 min
Bit rate : 1 181 kb/s
Width : 1 280 pixels
Height : 536 pixels
Display aspect ratio : 2.40:1
Frame rate mode : Constant
Frame rate : 23.976 (24000/1001) FPS
Color space : YUV
Chroma subsampling : 4:2:0
Bit depth : 8 bits
Scan type : Progressive
Bits/(Pixel*Frame) : 0.072
Stream size : 948 MiB (90%)
Writing library : x264 core 155 r2893 b00bcaf
Default : Yes
Forced : No
Color range : Limited
Color primaries : BT.709
Transfer characteristics : BT.709
Matrix coefficients : BT.709

Audio
ID : 2
Format : AAC
Format/Info : Advanced Audio Codec
Format profile : LC
Codec ID : A_AAC-2
Duration : 1 h 52 min
Bit rate : 129 kb/s
Channel(s) : 2 channels
Channel positions : Front: L R
Sampling rate : 48.0 kHz
Frame rate : 46.875 FPS (1024 SPF)
Compression mode : Lossy
Delay relative to video : 9 ms
Stream size : 103 MiB (10%)
Language : English
Default : Yes
Forced : No

Text
ID : 3
Format : UTF-8
Codec ID : S_TEXT/UTF8
Codec ID/Info : UTF-8 Plain Text
Duration : 1 h 49 min
Bit rate : 75 b/s
Count of elements : 1826
Stream size : 60.7 KiB (0%)
Default : Yes
Forced : No

[collapse]
Download Link(s)

Download

Direct download files get automatically deleted after a month or so. Posted on : 06/01/2018

[collapse]
Magnet Link

Magnet

Source : Tango.One.2018.1080p.BluRay.x264-GUACAMOLE-7.64 GB

[collapse]

You may also like...

error: nah :p~