Terminator 2 (1991)

Terminator 2: Judgment Day (original title)
R | 2h 17min | Action, Sci-Fi, Thriller | 3 July 1991 (USA)

A cyborg, identical to the one who failed to kill Sarah Connor, must now protect her ten year old son, John Connor, from a more advanced cyborg.

Media information

General
Format : Matroska
Format version : Version 4 / Version 2
File size : 2.07 GiB
Duration : 2 h 35 min
Overall bit rate : 1 898 kb/s
Movie name : Terminator.2.Judgment.Day.1991.EXTENDED.REMASTERED.720p.10bit.BluRay.6CH.x265.HEVC
Encoded date : UTC 2017-11-25 14:31:24
Writing application : mkvmerge v18.0.0 (‘Apricity’) 32-bit
Writing library : libebml v1.3.5 + libmatroska v1.4.8

Video
ID : 1
Format : HEVC
Format/Info : High Efficiency Video Coding
Format profile : Main [email protected]@Main
Codec ID : V_MPEGH/ISO/HEVC
Duration : 2 h 35 min
Bit rate : 1 681 kb/s
Width : 1 280 pixels
Height : 544 pixels
Display aspect ratio : 2.35:1
Frame rate mode : Constant
Frame rate : 23.976 (24000/1001) FPS
Color space : YUV
Chroma subsampling : 4:2:0
Bit depth : 10 bits
Bits/(Pixel*Frame) : 0.101
Stream size : 1.83 GiB (89%)
Default : Yes
Forced : No

Audio
ID : 2
Format : AAC
Format/Info : Advanced Audio Codec
Format profile : HE-AAC / LC
Format settings : Explicit
Codec ID : A_AAC-2
Duration : 2 h 35 min
Bit rate : 216 kb/s
Channel(s) : 6 channels
Channel positions : Front: L C R, Side: L R, LFE
Sampling rate : 48.0 kHz / 24.0 kHz
Frame rate : 23.438 FPS (1024 SPF)
Compression mode : Lossy
Delay relative to video : 23 ms
Stream size : 241 MiB (11%)
Default : Yes
Forced : No

Text
ID : 3
Format : UTF-8
Codec ID : S_TEXT/UTF8
Codec ID/Info : UTF-8 Plain Text
Duration : 2 h 34 min
Bit rate : 32 b/s
Count of elements : 1286
Stream size : 37.1 KiB (0%)
Language : English
Default : Yes
Forced : No

[collapse]
Download Link(s)

[collapse]
Magnet Link

Magnet

Source :Terminator.2.Judgement.Day.1991.Extended.REMASTERED.1080p.BluRay.x264.READ.NFO-JustWatch-12.03 GB

[collapse]

You may also like...

error: nah :p~