The 60th Annual Grammy Awards (2018)

TV-14 | Music | TV Special 28 January 2018

A small group of military personnel and survivalists dwell in an underground bunker as they seek to find a cure in a world overrun by zombies.

Watch trailer

Media information

General
Format : Matroska
Format version : Version 4 / Version 2
File size : 1.42 GiB
Duration : 2 h 35 min
Overall bit rate : 1 310 kb/s
Movie name : The.60th.Annual.Grammy.Awards.2018.720p.WEBRip.2CH.x265.HEVC
Encoded date : UTC 2018-01-30 11:30:12
Writing application : mkvmerge v20.0.0 (‘I Am The Sun’) 32-bit
Writing library : libebml v1.3.5 + libmatroska v1.4.8

Video
ID : 1
Format : HEVC
Format/Info : High Efficiency Video Coding
Format profile : [email protected]@Main
Codec ID : V_MPEGH/ISO/HEVC
Duration : 2 h 35 min
Bit rate : 1 182 kb/s
Width : 1 280 pixels
Height : 720 pixels
Display aspect ratio : 16:9
Frame rate mode : Constant
Frame rate : 29.970 (30000/1001) FPS
Color space : YUV
Chroma subsampling : 4:2:0
Bit depth : 8 bits
Bits/(Pixel*Frame) : 0.043
Stream size : 1.28 GiB (90%)
Default : Yes
Forced : No
Color range : Limited
Color primaries : BT.709
Transfer characteristics : BT.709
Matrix coefficients : BT.709

Audio
ID : 2
Format : AAC
Format/Info : Advanced Audio Codec
Format profile : LC
Codec ID : A_AAC-2
Duration : 2 h 35 min
Bit rate : 125 kb/s
Channel(s) : 2 channels
Channel positions : Front: L R
Sampling rate : 48.0 kHz
Frame rate : 46.875 FPS (1024 SPF)
Compression mode : Lossy
Delay relative to video : 19 ms
Stream size : 140 MiB (10%)
Default : Yes
Forced : No

Text
ID : 3
Format : UTF-8
Codec ID : S_TEXT/UTF8
Codec ID/Info : UTF-8 Plain Text
Duration : 5 s 0 ms
Bit rate : 65 b/s
Count of elements : 1
Stream size : 41.0 Bytes (0%)
Default : Yes
Forced : No

[collapse]
Download Link(s)

Part02 Part03

Direct download files get automatically deleted after a month or so. Posted on : 01/30/2018

[collapse]
Magnet Link

Magnet

Source : The 60th Annual Grammy Awards 2018 WEB x264-TBS-2.4 GB

[collapse]

You may also like...

error: nah :p~