The Cloverfield Paradox (2018)

TV-MA | 1h 42min | Horror, Mystery, Sci-Fi | 4 February 2018 (USA)

Orbiting a planet on the brink of war, scientists test a device to solve an energy crisis, and end up face-to-face with a dark alternate reality.

Watch trailer

Media information

General
Format : Matroska
Format version : Version 4 / Version 2
File size : 616 MiB
Duration : 1 h 42 min
Overall bit rate : 841 kb/s
Movie name : The.Cloverfield.Paradox.2018.720p.10bit.WEBRip.6CH.x265.HEVC
Encoded date : UTC 2018-02-09 16:15:38
Writing application : mkvmerge v20.0.0 (‘I Am The Sun’) 32-bit
Writing library : libebml v1.3.5 + libmatroska v1.4.8

Video
ID : 1
Format : HEVC
Format/Info : High Efficiency Video Coding
Format profile : Main [email protected]@Main
Codec ID : V_MPEGH/ISO/HEVC
Duration : 1 h 42 min
Bit rate : 639 kb/s
Width : 1 280 pixels
Height : 536 pixels
Display aspect ratio : 2.40:1
Frame rate mode : Constant
Frame rate : 23.976 (24000/1001) FPS
Color space : YUV
Chroma subsampling : 4:2:0
Bit depth : 10 bits
Bits/(Pixel*Frame) : 0.039
Stream size : 468 MiB (76%)
Default : Yes
Forced : No

Audio
ID : 2
Format : AAC
Format/Info : Advanced Audio Codec
Format profile : HE-AAC / LC
Format settings : NBC
Codec ID : A_AAC-2
Duration : 1 h 41 min
Bit rate : 201 kb/s
Channel(s) : 6 channels
Channel(s)_Original : 18 channels
Channel positions : Front: 14, Side: C, Back: C, LFE= 2
Sampling rate : 48.0 kHz / 24.0 kHz
Frame rate : 23.438 FPS (1024 SPF)
Compression mode : Lossy
Delay relative to video : 23 ms
Stream size : 146 MiB (24%)
Default : Yes
Forced : No

Text #1
ID : 3
Format : UTF-8
Codec ID : S_TEXT/UTF8
Codec ID/Info : UTF-8 Plain Text
Duration : 1 h 36 min
Bit rate : 56 b/s
Count of elements : 1436
Stream size : 40.1 KiB (0%)
Language : English
Default : Yes
Forced : No

Text #2
ID : 4
Format : UTF-8
Codec ID : S_TEXT/UTF8
Codec ID/Info : UTF-8 Plain Text
Duration : 1 h 36 min
Bit rate : 40 b/s
Count of elements : 1097
Stream size : 28.6 KiB (0%)
Language : Portuguese
Default : No
Forced : No

Text #3
ID : 5
Format : UTF-8
Codec ID : S_TEXT/UTF8
Codec ID/Info : UTF-8 Plain Text
Duration : 1 h 36 min
Bit rate : 42 b/s
Count of elements : 1196
Stream size : 29.8 KiB (0%)
Language : French
Default : No
Forced : No

Text #4
ID : 6
Format : UTF-8
Codec ID : S_TEXT/UTF8
Codec ID/Info : UTF-8 Plain Text
Duration : 1 h 36 min
Bit rate : 45 b/s
Count of elements : 1080
Stream size : 32.2 KiB (0%)
Language : German
Default : No
Forced : No

Text #5
ID : 7
Format : UTF-8
Codec ID : S_TEXT/UTF8
Codec ID/Info : UTF-8 Plain Text
Duration : 1 h 41 min
Bit rate : 39 b/s
Count of elements : 1198
Stream size : 29.2 KiB (0%)
Language : Italian
Default : No
Forced : No

[collapse]
Download Link(s)

Download

Direct download files get automatically deleted after a month or so. Posted on : 02/09/2018

[collapse]
Magnet Link

Magnet

Source : The.Cloverfield.Paradox.2018.iNTERNAL.1080p.WEB.x264-STRiFE-4.43 GB

[collapse]

You may also like...

error: nah :p~