The Cured (2017)

R | 1h 35min | Drama, Horror, Sci-Fi | 23 February 2018 (USA)

A disease that turns people into zombies has been cured. The once-infected zombies are discriminated against by society and their own families, which causes social issues to arise. This leads to militant government interference.

Watch trailer

Media information

General
Format : Matroska
Format version : Version 4 / Version 2
File size : 571 MiB
Duration : 1 h 34 min
Overall bit rate : 841 kb/s
Movie name : The.Cured.2017.720p.WEB-DL.2CH.x265.HEVC
Encoded date : UTC 2018-05-14 16:39:43
Writing application : mkvmerge v23.0.0 (‘The Bride Said No’) 32-bit
Writing library : libebml v1.3.6 + libmatroska v1.4.9

Video
ID : 1
Format : HEVC
Format/Info : High Efficiency Video Coding
Format profile : [email protected]@Main
Codec ID : V_MPEGH/ISO/HEVC
Duration : 1 h 34 min
Bit rate : 767 kb/s
Width : 1 280 pixels
Height : 528 pixels
Display aspect ratio : 2.40:1
Frame rate mode : Constant
Frame rate : 24.000 FPS
Color space : YUV
Chroma subsampling : 4:2:0
Bit depth : 8 bits
Bits/(Pixel*Frame) : 0.047
Stream size : 520 MiB (91%)
Default : Yes
Forced : No

Audio
ID : 2
Format : AAC
Format/Info : Advanced Audio Codec
Format profile : HE-AAC / LC
Format settings : Explicit
Codec ID : A_AAC-2
Duration : 1 h 34 min
Bit rate : 72.0 kb/s
Channel(s) : 2 channels
Channel positions : Front: L R
Sampling rate : 48.0 kHz / 24.0 kHz
Frame rate : 23.438 FPS (1024 SPF)
Compression mode : Lossy
Delay relative to video : 23 ms
Stream size : 49.6 MiB (9%)
Language : English
Default : Yes
Forced : No

[collapse]
Download Link(s)

Download

No subs are available

Direct download files get automatically deleted after a month or so. Posted on : 05/18/2018

[collapse]
Magnet Link

Magnet

Source : The.Cured.2017.1080p.WEB-DL.DD5.1.H264-FGT-3.32 GB

[collapse]

You may also like...

error: nah :p~