The Dark Knight (2008)

PG-13 | 2h 32min | Action, Crime, Drama | 18 July 2008 (USA)

When the menace known as the Joker emerges from his mysterious past, he wreaks havoc and chaos on the people of Gotham. The Dark Knight must accept one of the greatest psychological and physical tests of his ability to fight injustice

Watch trailer

Media information

General
Format : Matroska
Format version : Version 4 / Version 2
File size : 1.23 GiB
Duration : 2 h 32 min
Overall bit rate : 1 157 kb/s
Movie name : Batman.The.Dark.Knight.2008.720p.BluRay.2CH.x265.HEVC
Encoded date : UTC 2018-06-05 20:16:44
Writing application : mkvmerge v23.0.0 (‘The Bride Said No’) 32-bit
Writing library : libebml v1.3.6 + libmatroska v1.4.9

Video
ID : 1
Format : HEVC
Format/Info : High Efficiency Video Coding
Format profile : [email protected]@Main
Codec ID : V_MPEGH/ISO/HEVC
Duration : 2 h 32 min
Bit rate : 1 042 kb/s
Width : 1 280 pixels
Height : 720 pixels
Display aspect ratio : 2.40:1
Original display aspect ratio : 2.40:1
Frame rate mode : Constant
Frame rate : 23.976 (24000/1001) FPS
Color space : YUV
Chroma subsampling : 4:2:0
Bit depth : 8 bits
Bits/(Pixel*Frame) : 0.047
Stream size : 1.11 GiB (90%)
Default : Yes
Forced : No
Color range : Limited
Color primaries : BT.709
Transfer characteristics : BT.709
Matrix coefficients : BT.709

Audio
ID : 2
Format : AAC
Format/Info : Advanced Audio Codec
Format profile : LC
Codec ID : A_AAC-2
Duration : 2 h 32 min
Bit rate : 112 kb/s
Channel(s) : 2 channels
Channel positions : Front: L R
Sampling rate : 48.0 kHz
Frame rate : 46.875 FPS (1024 SPF)
Compression mode : Lossy
Delay relative to video : -105 ms
Stream size : 122 MiB (10%)
Title : Stereo
Language : English
Default : Yes
Forced : No

Text
ID : 3
Format : UTF-8
Codec ID : S_TEXT/UTF8
Codec ID/Info : UTF-8 Plain Text
Duration : 2 h 22 min
Bit rate : 70 b/s
Count of elements : 2008
Stream size : 74.1 KiB (0%)
Default : Yes
Forced : No

[collapse]
Download Link(s)

Part01 Part02

Direct download files get automatically deleted after a month or so. Posted on : 06/06/2018

[collapse]
Magnet Link

Magnet

Source : The.Dark.Knight.2008.2160p.BluRay.x265.10bit.SDR.DTS-HD.MA.5.1-SWTYBLZ-36.99 GB

[collapse]

You may also like...

error: nah :p~