The Dark Knight Rises (2012)

PG-13 | 2h 44min | Action, Thriller | 20 July 2012 (USA)

Eight years after the Joker’s reign of anarchy, Batman, with the help of the enigmatic Catwoman, is forced from his exile to save Gotham City, now on the edge of total annihilation, from the brutal guerrilla terrorist Bane.

Watch trailer

Media information

General
Format : Matroska
Format version : Version 4 / Version 2
File size : 1.07 GiB
Duration : 2 h 44 min
Overall bit rate : 928 kb/s
Movie name : Batman.The.Dark.Knight.Rises.720p.BluRay.2CH.x265.HEVC
Encoded date : UTC 2018-06-05 20:34:46
Writing application : mkvmerge v23.0.0 (‘The Bride Said No’) 32-bit
Writing library : libebml v1.3.6 + libmatroska v1.4.9

Video
ID : 1
Format : HEVC
Format/Info : High Efficiency Video Coding
Format profile : [email protected]@Main
Codec ID : V_MPEGH/ISO/HEVC
Duration : 2 h 44 min
Bit rate : 814 kb/s
Width : 1 280 pixels
Height : 720 pixels
Display aspect ratio : 2.40:1
Frame rate mode : Constant
Frame rate : 23.976 (24000/1001) FPS
Color space : YUV
Chroma subsampling : 4:2:0
Bit depth : 8 bits
Bits/(Pixel*Frame) : 0.037
Stream size : 958 MiB (88%)
Default : Yes
Forced : No
Color range : Limited
Color primaries : BT.709
Transfer characteristics : BT.709
Matrix coefficients : BT.709

Audio
ID : 2
Format : AAC
Format/Info : Advanced Audio Codec
Format profile : LC
Codec ID : A_AAC-2
Duration : 2 h 44 min
Bit rate : 112 kb/s
Channel(s) : 2 channels
Channel positions : Front: L R
Sampling rate : 48.0 kHz
Frame rate : 46.875 FPS (1024 SPF)
Compression mode : Lossy
Delay relative to video : -105 ms
Stream size : 132 MiB (12%)
Title : Stereo
Language : English
Default : Yes
Forced : No

Text
ID : 3
Format : UTF-8
Codec ID : S_TEXT/UTF8
Codec ID/Info : UTF-8 Plain Text
Duration : 2 h 34 min
Bit rate : 57 b/s
Count of elements : 1776
Stream size : 64.8 KiB (0%)
Default : Yes
Forced : No

[collapse]
Download Link(s)

Part01 Part02

Direct download files get automatically deleted after a month or so. Posted on : 06/06/2018

[collapse]
Magnet Link

Magnet

Source : The.Dark.Knight.Rises.2012.RERIP.2160p.BluRay.x265.10bit.HDR.DTS-HD.MA.5.1-TERMiNAL-23.67 GB

[collapse]

You may also like...

error: nah :p~