The Dark Tower (2017)

PG-13 | 1h 35min | Action, Adventure, Fantasy | 4 August 2017 (USA)

The last Gunslinger, Roland Deschain, has been locked in an eternal battle with Walter O’Dim, also known as the Man in Black, determined to prevent him from toppling the Dark Tower, which holds the universe together. With the fate of the worlds at stake, good and evil will collide in the ultimate battle as only Roland can defend the Tower from the Man in Black.

Watch trailer

Media information

General
Format : Matroska
Format version : Version 4 / Version 2
File size : 944 MiB
Duration : 1 h 34 min
Overall bit rate : 1 392 kb/s
Movie name : The.Dark.Tower.2017.720p.10bit.BluRay.6CH.x265.HEVC
Encoded date : UTC 2017-10-21 10:54:56
Writing application : mkvmerge v17.0.0 (‘Be Ur Friend’) 32-bit
Writing library : libebml v1.3.5 + libmatroska v1.4.8

Video
ID : 1
Format : HEVC
Format/Info : High Efficiency Video Coding
Format profile : Main [email protected]@Main
Codec ID : V_MPEGH/ISO/HEVC
Duration : 1 h 34 min
Bit rate : 1 186 kb/s
Width : 1 280 pixels
Height : 536 pixels
Display aspect ratio : 2.40:1
Frame rate mode : Constant
Frame rate : 23.976 (24000/1001) FPS
Color space : YUV
Chroma subsampling : 4:2:0
Bit depth : 10 bits
Bits/(Pixel*Frame) : 0.072
Stream size : 804 MiB (85%)
Default : Yes
Forced : No

Audio
ID : 2
Format : AAC
Format/Info : Advanced Audio Codec
Format profile : HE-AAC / LC
Format settings : Explicit
Codec ID : A_AAC-2
Duration : 1 h 34 min
Bit rate : 204 kb/s
Channel(s) : 6 channels
Channel(s)_Original : 22 channels
Channel positions : Front: 6, Side: 13, LFE= 3
Sampling rate : 48.0 kHz / 24.0 kHz
Frame rate : 23.438 FPS (1024 SPF)
Compression mode : Lossy
Delay relative to video : 23 ms
Stream size : 138 MiB (15%)
Default : Yes
Forced : No

Text
ID : 3
Format : UTF-8
Codec ID : S_TEXT/UTF8
Codec ID/Info : UTF-8 Plain Text
Duration : 1 h 25 min
Bit rate : 40 b/s
Count of elements : 899
Stream size : 25.3 KiB (0%)
Language : English
Default : Yes
Forced : No

[collapse]
Download Link(s)

Download

[RE-UP] – Direct download files get automatically deleted after a month or so. Posted on : 06/13/2018

[collapse]
Magnet Link

Magnet

Source : The.Dark.Tower.2017.1080p.BluRay.x264.DTS-HD.MA.5.1-FGT-7.08 GB

[collapse]

You may also like...

error: nah :p~