The Harrow (2016)

1h 35min | Crime, Drama, Mystery | 3 November 2016 (USA)

Miller lives alone in an abandoned Alabama slaughterhouse. His memory and sanity are shattered and his only company is the spirit of his lover, who was murdered a decade ago. Ruth arrives, desperate to discover the truth about her mother’s death. She stays with Miller for three nights. Together they piece together the fragments of his memory, but they are horrified at what they uncover.

Watch trailer

Media information

General
Format : Matroska
Format version : Version 4 / Version 2
File size : 521 MiB
Duration : 1 h 35 min
Overall bit rate : 761 kb/s
Movie name : The.Harrow.2016.720p.WEB-DL.2CH.x265.HEVC
Encoded date : UTC 2018-02-09 16:17:22
Writing application : mkvmerge v20.0.0 (‘I Am The Sun’) 32-bit
Writing library : libebml v1.3.5 + libmatroska v1.4.8

Video
ID : 1
Format : HEVC
Format/Info : High Efficiency Video Coding
Format profile : [email protected]@Main
Codec ID : V_MPEGH/ISO/HEVC
Duration : 1 h 35 min
Bit rate : 684 kb/s
Width : 1 280 pixels
Height : 528 pixels
Display aspect ratio : 2.40:1
Frame rate mode : Constant
Frame rate : 23.976 (24000/1001) FPS
Color space : YUV
Chroma subsampling : 4:2:0
Bit depth : 8 bits
Bits/(Pixel*Frame) : 0.042
Stream size : 468 MiB (90%)
Default : Yes
Forced : No

Audio
ID : 2
Format : AAC
Format/Info : Advanced Audio Codec
Format profile : HE-AAC / LC
Format settings : Explicit
Codec ID : A_AAC-2
Duration : 1 h 35 min
Bit rate : 75.0 kb/s
Channel(s) : 2 channels
Channel positions : Front: L R
Sampling rate : 48.0 kHz / 24.0 kHz
Frame rate : 23.438 FPS (1024 SPF)
Compression mode : Lossy
Delay relative to video : 23 ms
Stream size : 51.3 MiB (10%)
Default : Yes
Forced : No

Text
ID : 3
Format : UTF-8
Codec ID : S_TEXT/UTF8
Codec ID/Info : UTF-8 Plain Text
Duration : 1 h 33 min
Bit rate : 38 b/s
Count of elements : 943
Stream size : 26.1 KiB (0%)
Title : ENG
Language : English
Default : Yes
Forced : No

[collapse]
Download Link(s)

Download

Direct download files get automatically deleted after a month or so. Posted on : 02/09/2018

[collapse]
Magnet Link

Magnet

Source : The.Harrow.2016.1080p.WEB-DL.DD5.1.H264-FGT- 3.34 GB

[collapse]

You may also like...

error: nah :p~