The Insult (2017)

L’insulte (original title)|R | 1h 52min | Drama, Thriller | 14 September 2017 (Lebanon)

After an emotional exchange between a Lebanese Christian and a Palestinian refugee escalates, the men end up in a court case that gets national attention.

Watch trailer

Media information

General
Format : Matroska
Format version : Version 4 / Version 2
File size : 809 MiB
Duration : 1 h 53 min
Overall bit rate : 999 kb/s
Movie name : The.Insult.2017.ARABIC.720p.BrRip.2CH.x265.HEVC
Encoded date : UTC 2018-05-03 14:36:13
Writing application : mkvmerge v22.0.0 (‘At The End Of The World’) 32-bit
Writing library : libebml v1.3.5 + libmatroska v1.4.8

Video
ID : 1
Format : HEVC
Format/Info : High Efficiency Video Coding
Format profile : [email protected]@Main
Codec ID : V_MPEGH/ISO/HEVC
Duration : 1 h 53 min
Bit rate : 929 kb/s
Width : 1 280 pixels
Height : 536 pixels
Display aspect ratio : 2.40:1
Frame rate mode : Constant
Frame rate : 23.976 (24000/1001) FPS
Color space : YUV
Chroma subsampling : 4:2:0
Bit depth : 8 bits
Bits/(Pixel*Frame) : 0.057
Stream size : 753 MiB (93%)
Default : Yes
Forced : No

Audio
ID : 2
Format : AAC
Format/Info : Advanced Audio Codec
Format profile : HE-AAC / LC
Format settings : Explicit
Codec ID : A_AAC-2
Duration : 1 h 53 min
Bit rate : 67.9 kb/s
Channel(s) : 2 channels
Channel positions : Front: L R
Sampling rate : 48.0 kHz / 24.0 kHz
Frame rate : 23.438 FPS (1024 SPF)
Compression mode : Lossy
Delay relative to video : 23 ms
Stream size : 55.0 MiB (7%)
Language : Arabic
Default : Yes
Forced : No

Text
ID : 3
Format : UTF-8
Codec ID : S_TEXT/UTF8
Codec ID/Info : UTF-8 Plain Text
Duration : 1 h 46 min
Bit rate : 62 b/s
Count of elements : 1578
Stream size : 48.6 KiB (0%)
Language : English
Default : Yes
Forced : No

[collapse]
Download Link(s)

Download

Direct download files get automatically deleted after a month or so. Posted on : 05/04/2018

[collapse]
Magnet Link

Magnet

Source : The.Insult.2017.1080p.BluRay.x264-CiNEFiLE-7.66 GB

[collapse]

You may also like...

error: nah :p~