The Matrix (1999)

R | 2h 16min | Action, Sci-Fi | 31 March 1999 (USA)

A computer hacker learns from mysterious rebels about the true nature of his reality and his role in the war against its controllers.

Watch trailer

Media information

General
Format : Matroska
Format version : Version 4 / Version 2
File size : 872 MiB
Duration : 2 h 16 min
Overall bit rate : 894 kb/s
Movie name : The.Matrix.1999.720p.10bit.BluRay.6CH.x265.HEVC
Encoded date : UTC 2018-06-05 15:02:28
Writing application : mkvmerge v23.0.0 (‘The Bride Said No’) 32-bit
Writing library : libebml v1.3.6 + libmatroska v1.4.9

Video
ID : 1
Format : HEVC
Format/Info : High Efficiency Video Coding
Format profile : Main [email protected]@Main
Codec ID : V_MPEGH/ISO/HEVC
Duration : 2 h 16 min
Bit rate : 667 kb/s
Width : 1 280 pixels
Height : 536 pixels
Display aspect ratio : 2.40:1
Frame rate mode : Constant
Frame rate : 23.976 (24000/1001) FPS
Color space : YUV
Chroma subsampling : 4:2:0
Bit depth : 10 bits
Bits/(Pixel*Frame) : 0.041
Stream size : 651 MiB (75%)
Default : Yes
Forced : No

Audio
ID : 2
Format : AAC
Format/Info : Advanced Audio Codec
Format profile : HE-AAC / LC
Format settings : Explicit
Codec ID : A_AAC-2
Duration : 2 h 16 min
Bit rate : 225 kb/s
Channel(s) : 6 channels
Channel positions : Front: L C R, Side: L R, LFE
Sampling rate : 48.0 kHz / 24.0 kHz
Frame rate : 23.438 FPS (1024 SPF)
Compression mode : Lossy
Delay relative to video : 31 ms
Stream size : 219 MiB (25%)
Language : English
Default : Yes
Forced : No

Text
ID : 3
Format : UTF-8
Codec ID : S_TEXT/UTF8
Codec ID/Info : UTF-8 Plain Text
Duration : 2 h 7 min
Bit rate : 40 b/s
Count of elements : 1342
Stream size : 37.8 KiB (0%)
Language : English
Default : Yes
Forced : No

[collapse]
Download Link(s)

Download

Direct download files get automatically deleted after a month or so. Posted on : 06/05/2018

[collapse]
Magnet Link

Magnet

Source : The.Matrix.1999.2160p.BluRay.x265.10bit.SDR.DTS-HD.MA.TrueHD.7.1.Atmos-SWTYBLZ-45.24 GB

[collapse]

You may also like...

error: nah :p~