The Rendezvous (2016)

1h 32min | Action, Adventure | 8 October 2016 (USA)

RACHEL, a Jewish-American doctor, and JAKE, an Arab-American government bureaucrat, go on a goose chase across the Middle East trying to solve the mysterious death of Rachel’s treasure hunting brother. From Los Angeles to the deserts of Jordan and the ancient city of Petra, they find themselves hunted by a doomsday group called the Armageddonites who believe Rachel and Jake possess the missing Dead Sea Scroll that could bring about the end of days. Caught in the middle of a plot to hasten the end of mankind, Rachel and Jake need to solve the murder, find the scroll and find trust in each other.

Media information

General
Format : Matroska
Format version : Version 4 / Version 2
File size : 715 MiB
Duration : 1 h 32 min
Overall bit rate : 1 076 kb/s
Movie name : The.Rendezvous.2016.720p.WEB-DL.2CH.x265.HEVC
Encoded date : UTC 2017-11-12 15:25:38
Writing application : mkvmerge v17.0.0 (‘Be Ur Friend’) 32-bit
Writing library : libebml v1.3.5 + libmatroska v1.4.8

Video
ID : 1
Format : HEVC
Format/Info : High Efficiency Video Coding
Format profile : [email protected]@Main
Codec ID : V_MPEGH/ISO/HEVC
Duration : 1 h 32 min
Bit rate : 1 006 kb/s
Width : 1 280 pixels
Height : 528 pixels
Display aspect ratio : 2.40:1
Frame rate mode : Constant
Frame rate : 23.976 (24000/1001) FPS
Color space : YUV
Chroma subsampling : 4:2:0
Bit depth : 8 bits
Bits/(Pixel*Frame) : 0.062
Stream size : 668 MiB (93%)
Default : Yes
Forced : No

Audio
ID : 2
Format : AAC
Format/Info : Advanced Audio Codec
Format profile : HE-AAC / LC
Format settings : Explicit
Codec ID : A_AAC-2
Duration : 1 h 32 min
Bit rate : 68.5 kb/s
Channel(s) : 2 channels
Channel positions : Front: L R
Sampling rate : 48.0 kHz / 24.0 kHz
Frame rate : 23.438 FPS (1024 SPF)
Compression mode : Lossy
Delay relative to video : 23 ms
Stream size : 45.5 MiB (6%)
Default : Yes
Forced : No

Text
ID : 3
Format : UTF-8
Codec ID : S_TEXT/UTF8
Codec ID/Info : UTF-8 Plain Text
Duration : 1 h 24 min
Bit rate : 67 b/s
Count of elements : 1363
Stream size : 41.7 KiB (0%)
Default : Yes
Forced : No

[collapse]
Download Link(s)

[collapse]
Magnet Link

 

Magnet

Source : The.Rendezvous.2016.1080p.WEB-DL.DD5.1.H264-FGT- 3.19 GB

[collapse]

You may also like...

error: nah :p~