The Sorcerer and the White Snake (2011)

Bai she chuan shuo (original title)|PG-13 | 1h 40min | Action, Fantasy, Romance | 28 September 2011 (China)

A master monk tries to protect a naive young physician from a thousand-year-old snake demon. A contest of psychic powers results in mayhem.

Watch trailer

Media information

General
Format : Matroska
Format version : Version 4 / Version 2
File size : 650 MiB
Duration : 1 h 42 min
Overall bit rate : 890 kb/s
Movie name : The.Sorcerer.And.The.White.Snake.2011.CHINESE.720p.BluRay.2CH.x265.HEVC
Encoded date : UTC 2018-06-11 16:55:03
Writing application : mkvmerge v24.0.0 (‘Beyond The Pale’) 32-bit
Writing library : libebml v1.3.6 + libmatroska v1.4.9

Video
ID : 2
Format : HEVC
Format/Info : High Efficiency Video Coding
Format profile : [email protected]@Main
Codec ID : V_MPEGH/ISO/HEVC
Duration : 1 h 42 min
Bit rate : 824 kb/s
Width : 1 280 pixels
Height : 540 pixels
Display aspect ratio : 2.40:1
Frame rate mode : Constant
Frame rate : 24.000 FPS
Color space : YUV
Chroma subsampling : 4:2:0
Bit depth : 8 bits
Bits/(Pixel*Frame) : 0.050
Stream size : 602 MiB (93%)
Default : Yes
Forced : No
Color range : Limited
Color primaries : BT.709
Transfer characteristics : BT.709
Matrix coefficients : BT.709

Audio
ID : 1
Format : AAC
Format/Info : Advanced Audio Codec
Format profile : HE-AAC / LC
Format settings : Explicit
Codec ID : A_AAC-2
Duration : 1 h 42 min
Bit rate : 64.0 kb/s
Channel(s) : 2 channels
Channel positions : Front: L R
Sampling rate : 48.0 kHz / 24.0 kHz
Frame rate : 23.438 FPS (1024 SPF)
Compression mode : Lossy
Delay relative to video : -4 ms
Stream size : 46.8 MiB (7%)
Language : Chinese
Default : Yes
Forced : No

Text
ID : 3
Format : UTF-8
Codec ID : S_TEXT/UTF8
Codec ID/Info : UTF-8 Plain Text
Duration : 1 h 35 min
Bit rate : 32 b/s
Count of elements : 879
Stream size : 22.8 KiB (0%)
Language : Chinese
Default : Yes
Forced : No

[collapse]
Download Link(s)

Download

Direct download files get automatically deleted after a month or so. Posted on : 06/11/2018

[collapse]
Magnet Link

Magnet

Source : The.Sorcerer.And.The.White.Snake.2011.1080p.BluRay.x264-aBD-7.64 GB

[collapse]

Release Notes

Language : Chinese

Subtitles : English

[collapse]

You may also like...

error: nah :p~