The Titan (2018)

TV-MA | 1h 37min | Sci-Fi | 30 March 2018 (USA)

A military family takes part in a ground-breaking experiment of genetic evolution and space exploration.

Watch trailer

Media information

General
Format : Matroska
Format version : Version 4 / Version 2
File size : 770 MiB
Duration : 1 h 37 min
Overall bit rate : 1 106 kb/s
Movie name : The.Titan.2018.720p.10bit.BluRay.6CH.x265.HEVC
Encoded date : UTC 2018-05-05 08:24:22
Writing application : mkvmerge v23.0.0 (‘The Bride Said No’) 32-bit
Writing library : libebml v1.3.6 + libmatroska v1.4.9

Video
ID : 1
Format : HEVC
Format/Info : High Efficiency Video Coding
Format profile : Main [email protected]@Main
Codec ID : V_MPEGH/ISO/HEVC
Duration : 1 h 37 min
Bit rate : 888 kb/s
Width : 1 280 pixels
Height : 536 pixels
Display aspect ratio : 2.40:1
Frame rate mode : Constant
Frame rate : 24.000 FPS
Color space : YUV
Chroma subsampling : 4:2:0
Bit depth : 10 bits
Bits/(Pixel*Frame) : 0.054
Stream size : 618 MiB (80%)
Default : Yes
Forced : No

Audio
ID : 2
Format : AAC
Format/Info : Advanced Audio Codec
Format profile : HE-AAC / LC
Format settings : Explicit
Codec ID : A_AAC-2
Duration : 1 h 37 min
Bit rate : 216 kb/s
Channel(s) : 6 channels
Channel positions : Front: L C R, Side: L R, LFE
Sampling rate : 48.0 kHz / 24.0 kHz
Frame rate : 23.438 FPS (1024 SPF)
Compression mode : Lossy
Delay relative to video : 23 ms
Stream size : 150 MiB (20%)
Language : English
Default : Yes
Forced : No

Text #1
ID : 3
Format : UTF-8
Codec ID : S_TEXT/UTF8
Codec ID/Info : UTF-8 Plain Text
Duration : 1 h 27 min
Bit rate : 31 b/s
Count of elements : 574
Stream size : 20.0 KiB (0%)
Title : ENG
Language : English
Default : Yes
Forced : No

Text #2
ID : 4
Format : UTF-8
Codec ID : S_TEXT/UTF8
Codec ID/Info : UTF-8 Plain Text
Duration : 1 h 30 min
Bit rate : 32 b/s
Count of elements : 648
Stream size : 21.8 KiB (0%)
Title : ENG SDH
Language : English
Default : No
Forced : No

[collapse]
Download Link(s)

Download

Direct download files get automatically deleted after a month or so. Posted on : 05/05/2018

[collapse]
Magnet Link

Magnet

Source : Titan.2018.1080p.BluRay.REMUX.AVC.DTS-HD.MA.5.1-FGT-26.35 GB

[collapse]

Media information

General
Format : Matroska
Format version : Version 4 / Version 2
File size : 697 MiB
Duration : 1 h 37 min
Overall bit rate : 1 000 kb/s
Movie name : The.Titan.2018.720p.10bit.WEBRip.6CH.x265.HEVC
Encoded date : UTC 2018-03-31 09:24:42
Writing application : mkvmerge v21.0.0 (‘Tardigrades Will Inherit The Earth’) 32-bit
Writing library : libebml v1.3.5 + libmatroska v1.4.8

Video
ID : 1
Format : HEVC
Format/Info : High Efficiency Video Coding
Format profile : Main [email protected]@Main
Codec ID : V_MPEGH/ISO/HEVC
Duration : 1 h 37 min
Bit rate : 782 kb/s
Width : 1 280 pixels
Height : 536 pixels
Display aspect ratio : 2.40:1
Frame rate mode : Constant
Frame rate : 24.000 FPS
Color space : YUV
Chroma subsampling : 4:2:0
Bit depth : 10 bits
Bits/(Pixel*Frame) : 0.047
Stream size : 545 MiB (78%)
Default : Yes
Forced : No

Audio
ID : 2
Format : AAC
Format/Info : Advanced Audio Codec
Format profile : HE-AAC / LC
Format settings : Explicit
Codec ID : A_AAC-2
Duration : 1 h 37 min
Bit rate : 216 kb/s
Channel(s) : 6 channels
Channel positions : Front: L C R, Side: L R, LFE
Sampling rate : 48.0 kHz / 24.0 kHz
Frame rate : 23.438 FPS (1024 SPF)
Compression mode : Lossy
Delay relative to video : 23 ms
Stream size : 151 MiB (22%)
Default : Yes
Forced : No

Text #1
ID : 3
Format : UTF-8
Codec ID : S_TEXT/UTF8
Codec ID/Info : UTF-8 Plain Text
Duration : 1 h 27 min
Bit rate : 31 b/s
Count of elements : 633
Stream size : 20.0 KiB (0%)
Title : ENG
Language : English
Default : Yes
Forced : No

Text #2
ID : 4
Format : UTF-8
Codec ID : S_TEXT/UTF8
Codec ID/Info : UTF-8 Plain Text
Duration : 1 h 28 min
Bit rate : 34 b/s
Count of elements : 715
Stream size : 22.2 KiB (0%)
Title : ENG SDH
Language : English
Default : No
Forced : No

Text #3
ID : 5
Format : UTF-8
Codec ID : S_TEXT/UTF8
Codec ID/Info : UTF-8 Plain Text
Duration : 1 h 28 min
Bit rate : 29 b/s
Count of elements : 589
Stream size : 19.4 KiB (0%)
Language : Spanish
Default : No
Forced : No

Text #4
ID : 6
Format : UTF-8
Codec ID : S_TEXT/UTF8
Codec ID/Info : UTF-8 Plain Text
Duration : 1 h 28 min
Bit rate : 29 b/s
Count of elements : 575
Stream size : 19.1 KiB (0%)
Language : French
Default : No
Forced : No

Text #5
ID : 7
Format : UTF-8
Codec ID : S_TEXT/UTF8
Codec ID/Info : UTF-8 Plain Text
Duration : 1 h 28 min
Bit rate : 28 b/s
Count of elements : 572
Stream size : 18.6 KiB (0%)
Language : Italian
Default : No
Forced : No

Text #6
ID : 8
Format : UTF-8
Codec ID : S_TEXT/UTF8
Codec ID/Info : UTF-8 Plain Text
Duration : 1 h 28 min
Bit rate : 25 b/s
Count of elements : 608
Stream size : 16.6 KiB (0%)
Language : Japanese
Default : No
Forced : No

Text #7
ID : 9
Format : UTF-8
Codec ID : S_TEXT/UTF8
Codec ID/Info : UTF-8 Plain Text
Duration : 1 h 28 min
Bit rate : 26 b/s
Count of elements : 547
Stream size : 17.3 KiB (0%)
Language : Dutch
Default : No
Forced : No

Text #8
ID : 10
Format : UTF-8
Codec ID : S_TEXT/UTF8
Codec ID/Info : UTF-8 Plain Text
Duration : 1 h 28 min
Bit rate : 28 b/s
Count of elements : 590
Stream size : 18.2 KiB (0%)
Language : Polish
Default : No
Forced : No

Text #9
ID : 11
Format : UTF-8
Codec ID : S_TEXT/UTF8
Codec ID/Info : UTF-8 Plain Text
Duration : 1 h 28 min
Bit rate : 28 b/s
Count of elements : 582
Stream size : 18.6 KiB (0%)
Language : Portuguese
Default : No
Forced : No

Text #10
ID : 12
Format : UTF-8
Codec ID : S_TEXT/UTF8
Codec ID/Info : UTF-8 Plain Text
Duration : 1 h 28 min
Bit rate : 28 b/s
Count of elements : 581
Stream size : 18.2 KiB (0%)
Language : Romanian
Default : No
Forced : No

[collapse]
Download Link(s)

Download

Direct download files get automatically deleted after a month or so. Posted on : 03/31/2018

[collapse]
Magnet Link

Magnet

Source : The.Titan.2018.1080p.NF.WEBRip.DD5.1.x264-NTG- 2.85 GB

[collapse]

Media information

General
Format : Matroska
Format version : Version 4 / Version 2
File size : 803 MiB
Duration : 1 h 37 min
Overall bit rate : 1 151 kb/s
Movie name : The.Titan.2018.720p.WEB-DL.2CH.x264.AVC
Encoded date : UTC 2018-03-30 19:00:21
Writing application : mkvmerge v21.0.0 (‘Tardigrades Will Inherit The Earth’) 32-bit
Writing library : libebml v1.3.5 + libmatroska v1.4.8

Video
ID : 12
Format : AVC
Format/Info : Advanced Video Codec
Format profile : [email protected]
Format settings : CABAC / 8 Ref Frames
Format settings, CABAC : Yes
Format settings, RefFrames : 8 frames
Codec ID : V_MPEG4/ISO/AVC
Duration : 1 h 37 min
Bit rate : 1 086 kb/s
Width : 1 280 pixels
Height : 534 pixels
Display aspect ratio : 2.40:1
Original display aspect ratio : 2.40:1
Frame rate mode : Constant
Frame rate : 24.000 FPS
Color space : YUV
Chroma subsampling : 4:2:0
Bit depth : 8 bits
Scan type : Progressive
Bits/(Pixel*Frame) : 0.066
Stream size : 757 MiB (94%)
Writing library : x264 core 148 r2708 86b7198
Default : Yes
Forced : No
Color range : Limited
Color primaries : BT.709
Transfer characteristics : BT.709
Matrix coefficients : BT.709

Audio
ID : 1
Format : AAC
Format/Info : Advanced Audio Codec
Format profile : HE-AAC / LC
Format settings : Explicit
Codec ID : A_AAC-2
Duration : 1 h 37 min
Bit rate : 63.8 kb/s
Channel(s) : 2 channels
Channel positions : Front: L R
Sampling rate : 48.0 kHz / 24.0 kHz
Frame rate : 23.438 FPS (1024 SPF)
Compression mode : Lossy
Delay relative to video : 31 ms
Stream size : 44.5 MiB (6%)
Default : Yes
Forced : No

Text #1
ID : 2
Format : UTF-8
Codec ID : S_TEXT/UTF8
Codec ID/Info : UTF-8 Plain Text
Duration : 1 h 27 min
Bit rate : 31 b/s
Count of elements : 633
Stream size : 20.0 KiB (0%)
Language : English
Default : Yes
Forced : No

Text #2
ID : 3
Format : UTF-8
Codec ID : S_TEXT/UTF8
Codec ID/Info : UTF-8 Plain Text
Duration : 1 h 28 min
Bit rate : 34 b/s
Count of elements : 715
Stream size : 22.2 KiB (0%)
Title : SDH
Language : English
Default : No
Forced : No

Text #3
ID : 4
Format : UTF-8
Codec ID : S_TEXT/UTF8
Codec ID/Info : UTF-8 Plain Text
Duration : 1 h 28 min
Bit rate : 29 b/s
Count of elements : 589
Stream size : 19.4 KiB (0%)
Language : Spanish
Default : No
Forced : No

Text #4
ID : 5
Format : UTF-8
Codec ID : S_TEXT/UTF8
Codec ID/Info : UTF-8 Plain Text
Duration : 1 h 28 min
Bit rate : 29 b/s
Count of elements : 575
Stream size : 19.1 KiB (0%)
Language : French
Default : No
Forced : No

Text #5
ID : 6
Format : UTF-8
Codec ID : S_TEXT/UTF8
Codec ID/Info : UTF-8 Plain Text
Duration : 1 h 28 min
Bit rate : 28 b/s
Count of elements : 572
Stream size : 18.6 KiB (0%)
Language : Italian
Default : No
Forced : No

Text #6
ID : 7
Format : UTF-8
Codec ID : S_TEXT/UTF8
Codec ID/Info : UTF-8 Plain Text
Duration : 1 h 28 min
Bit rate : 25 b/s
Count of elements : 608
Stream size : 16.6 KiB (0%)
Language : Japanese
Default : No
Forced : No

Text #7
ID : 8
Format : UTF-8
Codec ID : S_TEXT/UTF8
Codec ID/Info : UTF-8 Plain Text
Duration : 1 h 28 min
Bit rate : 26 b/s
Count of elements : 547
Stream size : 17.3 KiB (0%)
Language : Dutch
Default : No
Forced : No

Text #8
ID : 9
Format : UTF-8
Codec ID : S_TEXT/UTF8
Codec ID/Info : UTF-8 Plain Text
Duration : 1 h 28 min
Bit rate : 28 b/s
Count of elements : 590
Stream size : 18.2 KiB (0%)
Language : Polish
Default : No
Forced : No

Text #9
ID : 10
Format : UTF-8
Codec ID : S_TEXT/UTF8
Codec ID/Info : UTF-8 Plain Text
Duration : 1 h 28 min
Bit rate : 28 b/s
Count of elements : 582
Stream size : 18.6 KiB (0%)
Title : Brazilian
Language : Portuguese
Default : No
Forced : No

Text #10
ID : 11
Format : UTF-8
Codec ID : S_TEXT/UTF8
Codec ID/Info : UTF-8 Plain Text
Duration : 1 h 28 min
Bit rate : 28 b/s
Count of elements : 581
Stream size : 18.2 KiB (0%)
Language : Romanian
Default : No
Forced : No

[collapse]
Download Link(s)

Download

Direct download files get automatically deleted after a month or so. Posted on : 03/30/2018

[collapse]
Magnet Link

Magnet

Source : The.Titan.2018.1080p.NF.WEBRip.DD5.1.x264-NTG- 2.85 GB

[collapse]

You may also like...

error: nah :p~