The Villainess (2017)

Ak-Nyeo (original title)
Not Rated | 2h 9min | Action, Drama | 8 June 2017 (South Korea)

A female assassin leaves a trail of bodies behind her as she seeks revenge.

Watch trailer

Media information

General
Format : Matroska
Format version : Version 4 / Version 2
File size : 1 010 MiB
Duration : 2 h 3 min
Overall bit rate : 1 144 kb/s
Movie name : The.Villainess.2017.1080p.BluRay.2CH.x265.HEVC
Encoded date : UTC 2017-12-11T20:31:50Z
Writing library : Lavf57.7.2

Video
ID : 1
Format : HEVC
Format/Info : High Efficiency Video Coding
Format profile : [email protected]@Main
Codec ID : V_MPEGH/ISO/HEVC
Duration : 2 h 3 min
Width : 1 920 pixels
Height : 804 pixels
Display aspect ratio : 2.40:1
Frame rate mode : Constant
Frame rate : 24.000 FPS
Color space : YUV
Chroma subsampling : 4:2:0
Bit depth : 8 bits
Default : Yes
Forced : No
Color range : Limited
Color primaries : BT.709
Transfer characteristics : BT.709
Matrix coefficients : BT.709

Audio
ID : 2
Format : Opus
Codec ID : A_OPUS
Duration : 2 h 3 min
Channel(s) : 2 channels
Channel positions : Front: L R
Sampling rate : 48.0 kHz
Compression mode : Lossy
Delay relative to video : -7 ms
Title : Stereo
Language : Korean
Default : Yes
Forced : No

Text
ID : 3
Format : PGS
Codec ID : S_HDMV/PGS
Codec ID/Info : Picture based subtitle format used on BDs/HD-DVDs
Language : English
Default : Yes
Forced : Yes

[collapse]
Download Link(s)

Download

[RE-UP] Direct download files get automatically deleted after a month or so. Posted on : 04/24/2018

[collapse]
Magnet Link

Magnet

Source : The.Villainess.2017.1080p.BluRay.x264-NODLABS-8.75 GB

[collapse]

Media information

General
Format : Matroska
Format version : Version 4 / Version 2
File size : 804 MiB
Duration : 2 h 3 min
Overall bit rate : 911 kb/s
Movie name : The.Villainess.2017.720p
Encoded date : UTC 2017-11-04 19:43:37
Writing application : mkvmerge v17.0.0 (‘Be Ur Friend’) 32-bit
Writing library : libebml v1.3.5 + libmatroska v1.4.8

Video
ID : 2
Format : HEVC
Format/Info : High Efficiency Video Coding
Format profile : [email protected]@Main
Codec ID : V_MPEGH/ISO/HEVC
Duration : 2 h 3 min
Bit rate : 809 kb/s
Width : 1 280 pixels
Height : 536 pixels
Display aspect ratio : 2.40:1
Frame rate mode : Constant
Frame rate : 24.000 FPS
Color space : YUV
Chroma subsampling : 4:2:0
Bit depth : 8 bits
Bits/(Pixel*Frame) : 0.049
Stream size : 714 MiB (89%)
Writing library : x265 2.1:[Windows][GCC 5.3.1][64 bit] 8bit
Default : Yes
Forced : No
Color range : Limited
Color primaries : BT.709
Transfer characteristics : BT.709
Matrix coefficients : BT.709

Audio
ID : 1
Format : AAC
Format/Info : Advanced Audio Codec
Format profile : HE-AAC / LC
Format settings : Explicit
Codec ID : A_AAC-2
Duration : 2 h 3 min
Bit rate : 100.0 kb/s
Channel(s) : 2 channels
Channel positions : Front: L R
Sampling rate : 48.0 kHz / 24.0 kHz
Frame rate : 23.438 FPS (1024 SPF)
Compression mode : Lossy
Delay relative to video : 31 ms
Stream size : 88.2 MiB (11%)
Language : Korean
Default : Yes
Forced : No

Text
ID : 3
Format : UTF-8
Codec ID : S_TEXT/UTF8
Codec ID/Info : UTF-8 Plain Text
Duration : 2 h 3 min
Bit rate : 22 b/s
Count of elements : 870
Stream size : 19.9 KiB (0%)
Language : English
Default : Yes
Forced : No

[collapse]
Download Link(s)

Download

[RE-UP] Direct download files get automatically deleted after a month or so. Posted on : 04/24/2018

[collapse]
Magnet Link

Magnet

Source : The Villainess (2017) 720p BRRip HEVC-804.2 MB

[collapse]

You may also like...

error: nah :p~