The Wilde Wedding (2017)

R | 1h 35min | Comedy | 15 September 2017 (USA)

A retired film star’s wedding to her fourth husband brings chaos when their families (and her ex-husband) show up for the festivities.

Watch trailer

Media information

General
Format : Matroska
Format version : Version 4 / Version 2
File size : 731 MiB
Duration : 1 h 35 min
Overall bit rate : 1 067 kb/s
Movie name : The.Wilde.Wedding.2017.720p.10bit.BluRay.6CH.x265.HEVC
Encoded date : UTC 2018-02-15 10:53:10
Writing application : mkvmerge v20.0.0 (‘I Am The Sun’) 32-bit
Writing library : libebml v1.3.5 + libmatroska v1.4.8

Video
ID : 1
Format : HEVC
Format/Info : High Efficiency Video Coding
Format profile : Main [email protected]@Main
Codec ID : V_MPEGH/ISO/HEVC
Duration : 1 h 35 min
Bit rate : 864 kb/s
Width : 1 280 pixels
Height : 536 pixels
Display aspect ratio : 2.40:1
Frame rate mode : Constant
Frame rate : 23.976 (24000/1001) FPS
Color space : YUV
Chroma subsampling : 4:2:0
Bit depth : 10 bits
Bits/(Pixel*Frame) : 0.052
Stream size : 592 MiB (81%)
Default : Yes
Forced : No

Audio
ID : 2
Format : AAC
Format/Info : Advanced Audio Codec
Format profile : HE-AAC / LC
Format settings : NBC
Codec ID : A_AAC-2
Duration : 1 h 35 min
Bit rate : 201 kb/s
Channel(s) : 6 channels
Channel(s)_Original : 18 channels
Channel positions : Front: 14, Side: C, Back: C, LFE= 2
Sampling rate : 48.0 kHz / 24.0 kHz
Frame rate : 23.438 FPS (1024 SPF)
Compression mode : Lossy
Delay relative to video : 23 ms
Stream size : 138 MiB (19%)
Default : Yes
Forced : No

Text
ID : 3
Format : UTF-8
Codec ID : S_TEXT/UTF8
Codec ID/Info : UTF-8 Plain Text
Duration : 1 h 30 min
Bit rate : 60 b/s
Count of elements : 1123
Stream size : 40.3 KiB (0%)
Title : ENG
Language : English
Default : Yes
Forced : No

[collapse]
Download Link(s)

Download

Direct download files get automatically deleted after a month or so. Posted on : 02/15/2018

[collapse]
Magnet Link

Magnet

Source : The.Wilde.Wedding.2017.1080p.BluRay.x264.DTS-HD.MA.5.1-FGT-8.79 GB

[collapse]

You may also like...

error: nah :p~