Thousand Yard Stare (2018)

1h 31min | War | 7 May 2018 (UK)

Returning home after fighting in Africa during World War II, a soldier with PTSD finds reintegrating with family life increasingly difficult as he relives the battle of Kasserine Pass.

Watch trailer

Media information

General
Format : Matroska
Format version : Version 4 / Version 2
File size : 702 MiB
Duration : 1 h 31 min
Overall bit rate : 1 076 kb/s
Movie name : Thousand.Yard.Stare.2018.720p.WEB-DL.2CH.x264.AVC
Encoded date : UTC 2018-05-08 17:13:05
Writing application : mkvmerge v23.0.0 (‘The Bride Said No’) 32-bit
Writing library : libebml v1.3.6 + libmatroska v1.4.9

Video
ID : 2
Format : AVC
Format/Info : Advanced Video Codec
Format profile : [email protected]
Format settings : CABAC / 8 Ref Frames
Format settings, CABAC : Yes
Format settings, RefFrames : 8 frames
Codec ID : V_MPEG4/ISO/AVC
Duration : 1 h 31 min
Bit rate : 1 011 kb/s
Width : 1 280 pixels
Height : 718 pixels
Display aspect ratio : 16:9
Frame rate mode : Constant
Frame rate : 23.976 (24000/1001) FPS
Color space : YUV
Chroma subsampling : 4:2:0
Bit depth : 8 bits
Scan type : Progressive
Bits/(Pixel*Frame) : 0.046
Stream size : 659 MiB (94%)
Default : Yes
Forced : No
Color range : Limited
Color primaries : BT.709
Transfer characteristics : BT.709
Matrix coefficients : BT.709

Audio
ID : 1
Format : AAC
Format/Info : Advanced Audio Codec
Format profile : HE-AAC / LC
Format settings : Explicit
Codec ID : A_AAC-2
Duration : 1 h 31 min
Bit rate : 64.0 kb/s
Channel(s) : 2 channels
Channel positions : Front: L R
Sampling rate : 48.0 kHz / 24.0 kHz
Frame rate : 23.438 FPS (1024 SPF)
Compression mode : Lossy
Delay relative to video : 31 ms
Stream size : 41.7 MiB (6%)
Language : English
Default : Yes
Forced : No

[collapse]
Download Link(s)

Download

No subs are available

Direct download files get automatically deleted after a month or so. Posted on : 05/08/2018

[collapse]
Magnet Link

Magnet

Source : Thousand.Yard.Stare.2018.1080p.WEB-DL.DD5.1.H264-FGT-3.61 GB

[collapse]

You may also like...

error: nah :p~