Tokyo Ghoul (2017)


Tôkyô gûru (original title) | 1h 59min | Action, Drama, Horror | 29 July 2017 (Japan)

A Tokyo college student is attacked by a ghoul, a superpowered human who feeds on human flesh. He survives, but has become part ghoul and becomes a fugitive on the run.

Watch trailer

Media information

Format : Matroska
Format version : Version 4 / Version 2
File size : 1.05 GiB
Duration : 1 h 59 min
Overall bit rate : 1 252 kb/s
Movie name : Tokyo.Ghoul.2017.720p.BRRip
Encoded date : UTC 2017-12-21 10:19:27
Writing application : mkvmerge v16.0.0 (‘Protest’) 64-bit
Writing library : libebml v1.3.5 + libmatroska v1.4.8

Video
ID : 2
Format : AVC
Format/Info : Advanced Video Codec
Format profile : [email protected]
Format settings, CABAC : Yes
Format settings, RefFrames : 9 frames
Codec ID : V_MPEG4/ISO/AVC
Duration : 1 h 59 min
Bit rate : 1 150 kb/s
Width : 1 280 pixels
Height : 536 pixels
Display aspect ratio : 2.40:1
Frame rate mode : Constant
Frame rate : 23.976 (24000/1001) FPS
Color space : YUV
Chroma subsampling : 4:2:0
Bit depth : 8 bits
Scan type : Progressive
Bits/(Pixel*Frame) : 0.070
Stream size : 986 MiB (92%)
Writing library : x264 core 133 r2334 a3ac64b
Default : Yes
Forced : No

Audio
ID : 1
Format : AAC
Format/Info : Advanced Audio Codec
Format profile : HE-AAC / LC
Codec ID : A_AAC
Duration : 1 h 59 min
Bit rate : 100.0 kb/s
Channel(s) : 2 channels
Channel positions : Front: L R
Sampling rate : 48.0 kHz / 24.0 kHz
Frame rate : 23.438 FPS (1024 SPF)
Compression mode : Lossy
Delay relative to video : 31 ms
Stream size : 85.8 MiB (8%)
Language : Japanese
Default : Yes
Forced : No

Text #1
ID : 3
Format : UTF-8
Codec ID : S_TEXT/UTF8
Codec ID/Info : UTF-8 Plain Text
Duration : 1 h 59 min
Bit rate : 21 b/s
Count of elements : 755
Stream size : 18.5 KiB (0%)
Language : English
Default : Yes
Forced : No

Text #2
ID : 4
Format : UTF-8
Codec ID : S_TEXT/UTF8
Codec ID/Info : UTF-8 Plain Text
Duration : 1 h 53 min
Bit rate : 19 b/s
Count of elements : 747
Stream size : 16.2 KiB (0%)
Title : Simplified
Language : Chinese
Default : No
Forced : No

Text #3
ID : 5
Format : UTF-8
Codec ID : S_TEXT/UTF8
Codec ID/Info : UTF-8 Plain Text
Duration : 1 h 53 min
Bit rate : 19 b/s
Count of elements : 747
Stream size : 16.2 KiB (0%)
Title : Traditional
Language : Chinese
Default : No
Forced : No

[collapse]
Download Link(s)

[collapse]
Magnet Link

Magnet

Source : Tokyo.Ghoul.2017.1080p.BluRay.x264-WiKi-8.91 GB

[collapse]
Release Notes

Language: Japanese

Subtitles: English

[collapse]

You may also like...

error: nah :p~