Training Day (2001)

R | 2h 2min | Crime, Drama, Thriller | 5 October 2001 (USA)

On his first day on the job as a Los Angeles narcotics officer, a rookie cop goes beyond a full work day in training within the narcotics division of the LAPD with a rogue detective who isn’t what he appears to be.

Media information

General
Format : Matroska
Format version : Version 4 / Version 2
File size : 2.77 GiB
Duration : 2 h 2 min
Overall bit rate : 3 252 kb/s
Movie name : Training Day(2001)1080p.BluRay.x265.HEVC.10bit.5,1
Encoded date : UTC 2017-10-17 15:34:52
Writing application : mkvmerge v17.0.0 (‘Be Ur Friend’) 32-bit
Writing library : libebml v1.3.5 + libmatroska v1.4.8

Video
ID : 1
Format : HEVC
Format/Info : High Efficiency Video Coding
Format profile : Main [email protected]@Main
Codec ID : V_MPEGH/ISO/HEVC
Duration : 2 h 2 min
Bit rate : 2 867 kb/s
Width : 1 920 pixels
Height : 812 pixels
Display aspect ratio : 2.35:1
Frame rate mode : Constant
Frame rate : 23.976 (24000/1001) FPS
Color space : YUV
Chroma subsampling : 4:2:0
Bit depth : 10 bits
Bits/(Pixel*Frame) : 0.077
Stream size : 2.44 GiB (88%)
Writing library : x265 2.2+2-998d4520d1cf:[Windows][GCC 6.2.0][64 bit] 10bit
Encoding settings : cpuid=1050111 / frame-threads=3 / numa-pools=8 / wpp / no-pmode / no-pme / no-psnr / no-ssim / log-level=2 / input-csp=1 / input-res=1920×812 / interlace=0 / total-frames=175570 / level-idc=0 / high-tier=1 / uhd-bd=0 / ref=3 / no-allow-non-conformance / no-repeat-headers / annexb / no-aud / no-hrd / info / hash=0 / no-temporal-layers / open-gop / min-keyint=23 / keyint=250 / bframes=4 / b-adapt=0 / b-pyramid / bframe-bias=0 / rc-lookahead=15 / lookahead-slices=5 / scenecut=40 / no-intra-refresh / ctu=64 / min-cu-size=8 / no-rect / no-amp / max-tu-size=32 / tu-inter-depth=1 / tu-intra-depth=1 / limit-tu=0 / rdoq-level=0 / signhide / no-tskip / nr-intra=0 / nr-inter=0 / no-constrained-intra / strong-intra-smoothing / max-merge=2 / limit-refs=3 / no-limit-modes / me=1 / subme=2 / merange=57 / temporal-mvp / weightp / no-weightb / no-analyze-src-pics / deblock=0:0 / sao / no-sao-non-deblock / rd=2 / no-early-skip / rskip / fast-intra / no-tskip-fast / no-cu-lossless / no-b-intra / rdpenalty=0 / psy-rd=2.00 / psy-rdoq=0.00 / no-rd-refine / analysis-mode=0 / no-lossless / cbqpoffs=0 / crqpoffs=0 / rc=abr / bitrate=2895 / qcomp=0.60 / qpstep=4 / stats-write=0 / stats-read=0 / ipratio=1.40 / pbratio=1.30 / aq-mode=1 / aq-strength=1.00 / cutree / zone-count=0 / no-strict-cbr / qg-size=32 / no-rc-grain / qpmax=69 / qpmin=0 / sar=1 / overscan=0 / videoformat=5 / range=0 / colorprim=2 / transfer=2 / colormatrix=2 / chromaloc=0 / display-window=0 / max-cll=0,0 / min-luma=0 / max-luma=1023 / log2-max-poc-lsb=8 / vui-timing-info / vui-hrd-info / slices=1 / opt-qp-pps / opt-ref-list-length-pps / no-multi-pass-opt-rps / scenecut-bias=0.05
Default : Yes
Forced : No

Audio
ID : 2
Format : AC-3
Format/Info : Audio Coding 3
Format settings, Endianness : Big
Codec ID : A_AC3
Duration : 2 h 2 min
Bit rate mode : Constant
Bit rate : 384 kb/s
Channel(s) : 6 channels
Channel positions : Front: L C R, Side: L R, LFE
Sampling rate : 48.0 kHz
Frame rate : 31.250 FPS (1536 SPF)
Bit depth : 16 bits
Compression mode : Lossy
Stream size : 335 MiB (12%)
Service kind : Complete Main
Default : Yes
Forced : No

Text
ID : 3
Format : UTF-8
Codec ID : S_TEXT/UTF8
Codec ID/Info : UTF-8 Plain Text
Duration : 1 h 54 min
Bit rate : 51 b/s
Count of elements : 1367
Stream size : 43.0 KiB (0%)
Default : No
Forced : No

Menu
00:00:00.000 : en:It’s Today
00:03:53.524 : en:Tell Me A Story
00:08:02.356 : en:Leave Family Out
00:12:20.072 : en:Drug Roust
00:15:37.394 : en:Narcotics In His Blood
00:20:35.943 : en:Joking With Roger
00:25:42.290 : en:Alley Incident
00:32:13.932 : en:It Takes A Wolf
00:36:12.670 : en:Collaring Sammy
00:40:41.063 : en:Sandman’s Wife
00:45:20.467 : en:Firing Line
00:47:15.207 : en:Wolf Or Sheep?
00:49:24.002 : en:Mother And Son
00:55:04.259 : en:LAPD’s Finest
00:59:59.762 : en:The Unit Punches In
01:02:56.272 : en:Roger Out Of His Misery
01:09:56.859 : en:The Scenario
01:15:08.253 : en:This Is The Game
01:20:29.699 : en:Five-Card Draw
01:24:17.385 : en:The Drop On The Cop
01:29:26.277 : en:Smiley’s Cousin
01:33:27.601 : en:”I’m Here For Alonzo”
01:37:21.335 : en:Preserving Life
01:41:25.579 : en:Rooftop Battle
01:45:00.210 : en:What Jake Learned Today
01:48:44.184 : en:”You Can’t Kill Me”
01:52:39.961 : en:Going Home
01:55:43.144 : en:End Credits

[collapse]
Download Link(s)

[collapse]
Magnet Link

 

Magnet

Source : Training Day(2001)1080p.BluRay.x265.HEVC.10bit.5,1ch.(xxxpav69)-2.8 GB

[collapse]

You may also like...

error: nah :p~