Valley of Bones (2017)

R | 1h 30min | Crime, Thriller, Western | 1 September 2017 (USA)

A disgraced paleontologist struggling to raise her son is tipped off to a groundbreaking dig site in the Badlands by a recovering meth addict, but his tie to the cartel threatens to bury them both under the weight of their criminal pasts.

Watch trailer

Media information

General
Format : Matroska
Format version : Version 4 / Version 2
File size : 530 MiB
Duration : 1 h 30 min
Overall bit rate : 822 kb/s
Movie name : Valley.of.Bones.2017.720p.WEB-DL.2CH.x265.HEVC
Encoded date : UTC 2017-12-08 12:54:26
Writing application : mkvmerge v18.0.0 (‘Apricity’) 32-bit
Writing library : libebml v1.3.5 + libmatroska v1.4.8

Video
ID : 1
Format : HEVC
Format/Info : High Efficiency Video Coding
Format profile : [email protected]@Main
Codec ID : V_MPEGH/ISO/HEVC
Duration : 1 h 30 min
Bit rate : 747 kb/s
Width : 1 280 pixels
Height : 528 pixels
Display aspect ratio : 2.40:1
Frame rate mode : Constant
Frame rate : 23.976 (24000/1001) FPS
Color space : YUV
Chroma subsampling : 4:2:0
Bit depth : 8 bits
Bits/(Pixel*Frame) : 0.046
Stream size : 482 MiB (91%)
Default : Yes
Forced : No

Audio
ID : 2
Format : AAC
Format/Info : Advanced Audio Codec
Format profile : HE-AAC / LC
Format settings : Explicit
Codec ID : A_AAC-2
Duration : 1 h 30 min
Bit rate : 72.0 kb/s
Channel(s) : 2 channels
Channel positions : Front: L R
Sampling rate : 48.0 kHz / 24.0 kHz
Frame rate : 23.438 FPS (1024 SPF)
Compression mode : Lossy
Delay relative to video : 23 ms
Stream size : 46.8 MiB (9%)
Default : Yes
Forced : No

Text
ID : 3
Format : UTF-8
Codec ID : S_TEXT/UTF8
Codec ID/Info : UTF-8 Plain Text
Duration : 1 h 18 min
Bit rate : 44 b/s
Count of elements : 882
Stream size : 25.4 KiB (0%)
Language : English
Default : Yes
Forced : No

[collapse]
Download Link(s)

Download

[RE-UP] – Direct download files get automatically deleted after a month or so. Posted on : 06/13/2018

[collapse]
Magnet Link

Magnet

Source : Valley.of.Bones.2017.1080p.WEB-DL.DD5.1.H264-FGT-3.14 GB

[collapse]

You may also like...

error: nah :p~