War for the Planet of the Apes (2017)

For freedom. For family. For the planet.

PG-13 | 2h 20min | Action, Adventure, Drama | 14 July 2017 (USA)

After the apes suffer unimaginable losses, Caesar wrestles with his darker instincts and begins his own mythic quest to avenge his kind.Caesar and his apes are forced into a deadly conflict with an army of humans led by a ruthless Colonel. After the apes suffer unimaginable losses, Caesar wrestles with his darker instincts and begins his own mythic quest to avenge his kind. As the journey finally brings them face to face, Caesar and the Colonel are pitted against each other in an epic battle that will determine the fate of both their species and the future of the planet.

Watch trailer

Media information

General
Format : Matroska
Format version : Version 4 / Version 2
File size : 1.07 GiB
Duration : 2 h 20 min
Overall bit rate : 1 095 kb/s
Movie name : War.for.the.Planet.of.the.Apes.2017.720p.10bit.BluRay.6CH.x265
Encoded date : UTC 2017-10-17 08:06:29
Writing application : mkvmerge v17.0.0 (‘Be Ur Friend’) 32-bit
Writing library : libebml v1.3.5 + libmatroska v1.4.8

Video
ID : 1
Format : HEVC
Format/Info : High Efficiency Video Coding
Format profile : [email protected]@Main
Codec ID : V_MPEGH/ISO/HEVC
Duration : 2 h 20 min
Bit rate : 881 kb/s
Width : 1 280 pixels
Height : 536 pixels
Display aspect ratio : 2.40:1
Frame rate mode : Constant
Frame rate : 23.976 (24000/1001) FPS
Color space : YUV
Chroma subsampling : 4:2:0
Bit depth : 8 bits
Bits/(Pixel*Frame) : 0.054
Stream size : 883 MiB (80%)
Default : Yes
Forced : No

Audio
ID : 2
Format : AAC
Format/Info : Advanced Audio Codec
Format profile : HE-AAC / LC
Format settings : Explicit
Codec ID : A_AAC-2
Duration : 2 h 20 min
Bit rate : 212 kb/s
Channel(s) : 6 channels
Channel positions : Front: L C R, Side: L R, LFE
Sampling rate : 48.0 kHz / 24.0 kHz
Frame rate : 23.438 FPS (1024 SPF)
Compression mode : Lossy
Delay relative to video : 23 ms
Stream size : 213 MiB (19%)
Default : Yes
Forced : No

Text #1
ID : 3
Format : UTF-8
Codec ID : S_TEXT/UTF8
Codec ID/Info : UTF-8 Plain Text
Duration : 2 h 9 min
Bit rate : 16 b/s
Count of elements : 762
Stream size : 15.7 KiB (0%)
Title : ENG
Language : English
Default : Yes
Forced : No

Text #2
ID : 4
Format : UTF-8
Codec ID : S_TEXT/UTF8
Codec ID/Info : UTF-8 Plain Text
Duration : 2 h 10 min
Bit rate : 20 b/s
Count of elements : 1012
Stream size : 19.8 KiB (0%)
Title : ENG SDH
Language : English
Default : No
Forced : No

[collapse]
Download Link(s)

Part01 Part02

[RE-UP] Direct download files get automatically deleted after a month or so. Posted on : 06/18/2018

[collapse]
Magnet Link

Magnet

Source : War.For.The.Planet.Of.The.Apes.2017.1080p.BluRay.x264-BLOW-10.98 GB

[collapse]

You may also like...

error: nah :p~