Wild Tales (2014)

Relatos salvajes (original title)|R | 2h 2min | Comedy, Drama, Thriller | 21 August 2014 (Argentina)

Six short stories that explore the extremities of human behavior involving people in distress.

Watch trailer

Media information

General
Format : Matroska
Format version : Version 4 / Version 2
File size : 496 MiB
Duration : 1 h 55 min
Overall bit rate : 600 kb/s
Movie name : Wild.Tales.2014.720p.BRrip.x265.HEVC.10bit
Encoded date : UTC 2018-01-29 18:22:01
Writing application : mkvmerge v20.0.0 (‘I Am The Sun’) 32-bit
Writing library : libebml v1.3.5 + libmatroska v1.4.8

Video
ID : 1
Format : HEVC
Format/Info : High Efficiency Video Coding
Format profile : Main [email protected]@Main
Codec ID : V_MPEGH/ISO/HEVC
Duration : 1 h 55 min
Bit rate : 558 kb/s
Width : 1 280 pixels
Height : 536 pixels
Display aspect ratio : 2.40:1
Frame rate mode : Constant
Frame rate : 23.976 (24000/1001) FPS
Color space : YUV
Chroma subsampling : 4:2:0
Bit depth : 10 bits
Bits/(Pixel*Frame) : 0.034
Stream size : 462 MiB (93%)
Writing library : x265 2.3+1-7e225aefd389:[Windows][GCC 6.3.0][64 bit] 10bit
Default : No
Forced : No

Audio
ID : 2
Format : AAC
Format/Info : Advanced Audio Codec
Format profile : HE-AAC / LC
Format settings : Explicit
Codec ID : A_AAC-2
Duration : 1 h 55 min
Bit rate : 40.1 kb/s
Channel(s) : 2 channels
Channel positions : Front: L R
Sampling rate : 48.0 kHz / 24.0 kHz
Frame rate : 23.438 FPS (1024 SPF)
Compression mode : Lossy
Delay relative to video : 31 ms
Stream size : 33.1 MiB (7%)
Language : Spanish
Default : No
Forced : No

Text
ID : 3
Format : UTF-8
Codec ID : S_TEXT/UTF8
Codec ID/Info : UTF-8 Plain Text
Duration : 1 h 50 min
Bit rate : 43 b/s
Count of elements : 1176
Stream size : 35.5 KiB (0%)
Language : English
Default : No
Forced : No

[collapse]
Download Link(s)

Download

Direct download files get automatically deleted after a month or so. Posted on : 01/29/2018

[collapse]
Magnet Link

Magnet

Source : Wild.Tales.2014.1080p.BluRay.x264-NODLABS-7.94 GB

[collapse]

Release Notes

Language: Spanish

Subtitles: English

[collapse]

You may also like...

error: nah :p~