You, Me and Him (2018)

Comedy | 12 April 2018 (UK)

In You, Me and Him we meet lesbian couple Olivia and Alex (Lucy Punch, Faye Marsay) who, despite their age difference, are very much in love. But as the question of pregnancy rears its head and their neighbour John (David Tennant) befriends them, they both start making some truly disastrous decisions.

Media information

General
Format : Matroska
Format version : Version 4 / Version 2
File size : 770 MiB
Duration : 1 h 38 min
Overall bit rate : 1 099 kb/s
Movie name : You.Me.and.Him.2018.720p.WEBRip.2CH.x265.HEVC
Encoded date : UTC 2017-12-18 20:59:01
Writing application : mkvmerge v19.0.0 (‘Brave Captain’) 32-bit
Writing library : libebml v1.3.5 + libmatroska v1.4.8

Video
ID : 1
Format : HEVC
Format/Info : High Efficiency Video Coding
Format profile : [email protected]@Main
Codec ID : V_MPEGH/ISO/HEVC
Duration : 1 h 38 min
Bit rate : 1 031 kb/s
Width : 1 280 pixels
Height : 688 pixels
Display aspect ratio : 1.85:1
Frame rate mode : Constant
Frame rate : 23.976 (24000/1001) FPS
Color space : YUV
Chroma subsampling : 4:2:0
Bit depth : 8 bits
Bits/(Pixel*Frame) : 0.049
Stream size : 723 MiB (94%)
Default : Yes
Forced : No

Audio
ID : 2
Format : AAC
Format/Info : Advanced Audio Codec
Format profile : HE-AAC / LC
Format settings : Explicit
Codec ID : A_AAC-2
Duration : 1 h 38 min
Bit rate : 66.2 kb/s
Channel(s) : 2 channels
Channel positions : Front: L R
Sampling rate : 48.0 kHz / 24.0 kHz
Frame rate : 23.438 FPS (1024 SPF)
Compression mode : Lossy
Delay relative to video : 23 ms
Stream size : 46.0 MiB (6%)
Default : Yes
Forced : No

Text
ID : 3
Format : UTF-8
Codec ID : S_TEXT/UTF8
Codec ID/Info : UTF-8 Plain Text
Duration : 1 h 37 min
Bit rate : 69 b/s
Count of elements : 1403
Stream size : 49.6 KiB (0%)
Language : English
Default : Yes
Forced : No

[collapse]
Download Link(s)

[collapse]
Magnet Link

Magnet

Source : You.Me.and.Him.2018.1080p.AMZN.WEBRip.DDP5.1.x264-monkee-6.29 GB

[collapse]

You may also like...

error: nah :p~