Billions

TV-MA | 1h | Drama | TV Series (2016– )

U.S. Attorney Chuck Rhoades goes after hedge fund king Bobby “Axe” Axelrod in a battle between two powerful New York figures.

Watch trailer

Details and Download | S03 COMPLETE

Average Media Info:
General
Format : Matroska
Format version : Version 4 / Version 2
Overall bit rate : 575 kb/s
Writing application : mkvmerge v22.0.0 (‘At The End Of The World’) 32-bit
Writing library : libebml v1.3.5 + libmatroska v1.4.8

Video
ID : 1
Format : HEVC
Format/Info : High Efficiency Video Coding
Format profile : [email protected]@Main
Codec ID : V_MPEGH/ISO/HEVC
Bit rate : 507 kb/s
Width : 1 280 pixels
Height : 720 pixels
Display aspect ratio : 16:9
Frame rate mode : Constant
Frame rate : 23.976 (24000/1001) FPS
Color space : YUV
Chroma subsampling : 4:2:0
Bit depth : 8 bits
Bits/(Pixel*Frame) : 0.023
Default : Yes
Forced : No

Audio
ID : 2
Format : AAC
Format/Info : Advanced Audio Codec
Format profile : HE-AAC / LC
Format settings : Explicit
Codec ID : A_AAC-2
Bit rate : 66.2 kb/s
Channel(s) : 2 channels
Channel positions : Front: L R
Sampling rate : 48.0 kHz / 24.0 kHz
Frame rate : 23.438 FPS (1024 SPF)
Compression mode : Lossy
Delay relative to video : 23 ms
Language : English
Default : Yes
Forced : No

Text
ID : 3
Format : UTF-8
Codec ID : S_TEXT/UTF8
Codec ID/Info : UTF-8 Plain Text
Bit rate : 86 b/s
Count of elements : 1310
Language : English
Default : Yes
Forced : No

Part01 Part02 Part03

Direct download files get automatically deleted after a month or so. Posted on : 06/11/2018

File size : 2.79 GB (2,996,535,296 bytes)

[collapse]

Details and Download | S03E12

General
Format : Matroska
Format version : Version 4 / Version 2
File size : 228 MiB
Duration : 55 min 32 s
Overall bit rate : 574 kb/s
Movie name : Billions.S03E12.Elmsley.Count.720p.WEBRip.2CH.x265.HEVC
Encoded date : UTC 2018-06-11 08:22:19
Writing application : mkvmerge v24.0.0 (‘Beyond The Pale’) 32-bit
Writing library : libebml v1.3.6 + libmatroska v1.4.9

Video
ID : 1
Format : HEVC
Format/Info : High Efficiency Video Coding
Format profile : [email protected]@Main
Codec ID : V_MPEGH/ISO/HEVC
Duration : 55 min 32 s
Bit rate : 506 kb/s
Width : 1 280 pixels
Height : 720 pixels
Display aspect ratio : 16:9
Frame rate mode : Constant
Frame rate : 23.976 (24000/1001) FPS
Color space : YUV
Chroma subsampling : 4:2:0
Bit depth : 8 bits
Bits/(Pixel*Frame) : 0.023
Stream size : 201 MiB (88%)
Default : Yes
Forced : No

Audio
ID : 2
Format : AAC
Format/Info : Advanced Audio Codec
Format profile : HE-AAC / LC
Format settings : NBC
Codec ID : A_AAC-2
Duration : 55 min 32 s
Bit rate : 66.2 kb/s
Channel(s) : 2 channels
Channel(s)_Original : 22 channels
Channel positions : Front: C, Side: 5, Back: 15, LFE
Sampling rate : 48.0 kHz / 24.0 kHz
Frame rate : 23.438 FPS (1024 SPF)
Compression mode : Lossy
Delay relative to video : 23 ms
Stream size : 26.4 MiB (12%)
Language : English
Default : Yes
Forced : No

Text
ID : 3
Format : UTF-8
Codec ID : S_TEXT/UTF8
Codec ID/Info : UTF-8 Plain Text
Duration : 55 min 27 s
Bit rate : 91 b/s
Count of elements : 1277
Stream size : 37.0 KiB (0%)
Language : English
Default : Yes
Forced : No

Download

Direct download files get automatically deleted after a month or so. Posted on : 06/11/2018

[collapse]
Details and Download | S03E11

General
Format : Matroska
Format version : Version 4 / Version 2
File size : 239 MiB
Duration : 58 min 32 s
Overall bit rate : 571 kb/s
Movie name : Billions.S03E11.Kompenso.720p.WEBRip.2CH.x265.HEVC
Encoded date : UTC 2018-06-04 08:08:17
Writing application : mkvmerge v23.0.0 (‘The Bride Said No’) 32-bit
Writing library : libebml v1.3.6 + libmatroska v1.4.9

Video
ID : 1
Format : HEVC
Format/Info : High Efficiency Video Coding
Format profile : [email protected]@Main
Codec ID : V_MPEGH/ISO/HEVC
Duration : 58 min 32 s
Bit rate : 505 kb/s
Width : 1 280 pixels
Height : 720 pixels
Display aspect ratio : 16:9
Frame rate mode : Constant
Frame rate : 23.976 (24000/1001) FPS
Color space : YUV
Chroma subsampling : 4:2:0
Bit depth : 8 bits
Bits/(Pixel*Frame) : 0.023
Stream size : 211 MiB (88%)
Default : Yes
Forced : No

Audio
ID : 2
Format : AAC
Format/Info : Advanced Audio Codec
Format profile : HE-AAC / LC
Format settings : Explicit
Codec ID : A_AAC-2
Duration : 58 min 32 s
Bit rate : 64.3 kb/s
Channel(s) : 2 channels
Channel positions : Front: L R
Sampling rate : 48.0 kHz / 24.0 kHz
Frame rate : 23.438 FPS (1024 SPF)
Compression mode : Lossy
Delay relative to video : 23 ms
Stream size : 26.9 MiB (11%)
Language : English
Default : Yes
Forced : No

Text
ID : 3
Format : UTF-8
Codec ID : S_TEXT/UTF8
Codec ID/Info : UTF-8 Plain Text
Duration : 57 min 50 s
Bit rate : 97 b/s
Count of elements : 1383
Stream size : 41.5 KiB (0%)
Language : English
Default : Yes
Forced : No

Download

Direct download files get automatically deleted after a month or so. Posted on : 06/04/2018

[collapse]
Details and Download | S03E10

General
Format : Matroska
Format version : Version 4 / Version 2
File size : 276 MiB
Duration : 58 min 32 s
Overall bit rate : 660 kb/s
Movie name : Billions.S03E10.Redemption.720p.WEBRip.2CH.x265.HEVC
Encoded date : UTC 2018-05-28 08:23:32
Writing application : mkvmerge v23.0.0 (‘The Bride Said No’) 32-bit
Writing library : libebml v1.3.6 + libmatroska v1.4.9

Video
ID : 1
Format : HEVC
Format/Info : High Efficiency Video Coding
Format profile : [email protected]@Main
Codec ID : V_MPEGH/ISO/HEVC
Duration : 58 min 32 s
Bit rate : 593 kb/s
Width : 1 280 pixels
Height : 720 pixels
Display aspect ratio : 16:9
Frame rate mode : Constant
Frame rate : 23.976 (24000/1001) FPS
Color space : YUV
Chroma subsampling : 4:2:0
Bit depth : 8 bits
Bits/(Pixel*Frame) : 0.027
Stream size : 248 MiB (90%)
Default : Yes
Forced : No

Audio
ID : 2
Format : AAC
Format/Info : Advanced Audio Codec
Format profile : HE-AAC / LC
Format settings : Explicit
Codec ID : A_AAC-2
Duration : 58 min 31 s
Bit rate : 64.7 kb/s
Channel(s) : 2 channels
Channel positions : Front: L R
Sampling rate : 48.0 kHz / 24.0 kHz
Frame rate : 23.438 FPS (1024 SPF)
Compression mode : Lossy
Delay relative to video : 23 ms
Stream size : 27.1 MiB (10%)
Language : English
Default : Yes
Forced : No

Text
ID : 3
Format : UTF-8
Codec ID : S_TEXT/UTF8
Codec ID/Info : UTF-8 Plain Text
Duration : 57 min 48 s
Bit rate : 93 b/s
Count of elements : 1403
Stream size : 39.7 KiB (0%)
Language : English
Default : Yes
Forced : No

Download

Direct download files get automatically deleted after a month or so. Posted on : 05/28/2018

[collapse]
Details and Download | S03E09

General
Format : Matroska
Format version : Version 4 / Version 2
File size : 205 MiB
Duration : 51 min 49 s
Overall bit rate : 554 kb/s
Movie name : Billions.S03E09.Icebreaker.720p.WEBRip.2CH.x265.HEVC
Encoded date : UTC 2018-05-21 08:09:28
Writing application : mkvmerge v23.0.0 (‘The Bride Said No’) 32-bit
Writing library : libebml v1.3.6 + libmatroska v1.4.9

Video
ID : 1
Format : HEVC
Format/Info : High Efficiency Video Coding
Format profile : [email protected]@Main
Codec ID : V_MPEGH/ISO/HEVC
Duration : 51 min 49 s
Bit rate : 489 kb/s
Width : 1 280 pixels
Height : 720 pixels
Display aspect ratio : 16:9
Frame rate mode : Constant
Frame rate : 23.976 (24000/1001) FPS
Color space : YUV
Chroma subsampling : 4:2:0
Bit depth : 8 bits
Bits/(Pixel*Frame) : 0.022
Stream size : 181 MiB (88%)
Default : Yes
Forced : No

Audio
ID : 2
Format : AAC
Format/Info : Advanced Audio Codec
Format profile : HE-AAC / LC
Format settings : Explicit
Codec ID : A_AAC-2
Duration : 51 min 48 s
Bit rate : 62.3 kb/s
Channel(s) : 2 channels
Channel positions : Front: L R
Sampling rate : 48.0 kHz / 24.0 kHz
Frame rate : 23.438 FPS (1024 SPF)
Compression mode : Lossy
Delay relative to video : 23 ms
Stream size : 23.1 MiB (11%)
Language : English
Default : Yes
Forced : No

Text
ID : 3
Format : UTF-8
Codec ID : S_TEXT/UTF8
Codec ID/Info : UTF-8 Plain Text
Duration : 51 min 38 s
Bit rate : 95 b/s
Count of elements : 1197
Stream size : 36.2 KiB (0%)
Language : English
Default : Yes
Forced : No

Download

Direct download files get automatically deleted after a month or so. Posted on : 05/21/2018

[collapse]
Details and Download | S03E08

General
Format : Matroska
Format version : Version 4 / Version 2
File size : 221 MiB
Duration : 58 min 8 s
Overall bit rate : 532 kb/s
Movie name : Billions.S03E08.All.the.Wilburys.720p.WEBRip.2CH.x265.HEVC
Encoded date : UTC 2018-05-14 04:58:40
Writing application : mkvmerge v23.0.0 (‘The Bride Said No’) 32-bit
Writing library : libebml v1.3.6 + libmatroska v1.4.9

Video
ID : 1
Format : HEVC
Format/Info : High Efficiency Video Coding
Format profile : [email protected]@Main
Codec ID : V_MPEGH/ISO/HEVC
Duration : 58 min 8 s
Bit rate : 464 kb/s
Width : 1 280 pixels
Height : 720 pixels
Display aspect ratio : 16:9
Frame rate mode : Constant
Frame rate : 23.976 (24000/1001) FPS
Color space : YUV
Chroma subsampling : 4:2:0
Bit depth : 8 bits
Bits/(Pixel*Frame) : 0.021
Stream size : 193 MiB (87%)
Default : Yes
Forced : No

Audio
ID : 2
Format : AAC
Format/Info : Advanced Audio Codec
Format profile : HE-AAC / LC
Format settings : Explicit
Codec ID : A_AAC-2
Duration : 58 min 8 s
Bit rate : 66.2 kb/s
Channel(s) : 2 channels
Channel positions : Front: L R
Sampling rate : 48.0 kHz / 24.0 kHz
Frame rate : 23.438 FPS (1024 SPF)
Compression mode : Lossy
Delay relative to video : 23 ms
Stream size : 27.3 MiB (12%)
Language : English
Default : Yes
Forced : No

Text
ID : 3
Format : UTF-8
Codec ID : S_TEXT/UTF8
Codec ID/Info : UTF-8 Plain Text
Duration : 57 min 57 s
Bit rate : 87 b/s
Count of elements : 1281
Stream size : 37.0 KiB (0%)
Language : English
Default : Yes
Forced : No

Download

Direct download files get automatically deleted after a month or so. Posted on : 05/14/2018

[collapse]
Details and Download | S03E07

General
Format : Matroska
Format version : Version 4 / Version 2
File size : 230 MiB
Duration : 58 min 28 s
Overall bit rate : 550 kb/s
Movie name : Billions.S03E07.Not.You.Mr.Dake.720p.WEBRip.2CH.x265.HEVC
Encoded date : UTC 2018-05-07 05:51:09
Writing application : mkvmerge v23.0.0 (‘The Bride Said No’) 32-bit
Writing library : libebml v1.3.6 + libmatroska v1.4.9

Video
ID : 1
Format : HEVC
Format/Info : High Efficiency Video Coding
Format profile : [email protected]@Main
Codec ID : V_MPEGH/ISO/HEVC
Duration : 58 min 28 s
Bit rate : 481 kb/s
Width : 1 280 pixels
Height : 720 pixels
Display aspect ratio : 16:9
Frame rate mode : Constant
Frame rate : 23.976 (24000/1001) FPS
Color space : YUV
Chroma subsampling : 4:2:0
Bit depth : 8 bits
Bits/(Pixel*Frame) : 0.022
Stream size : 201 MiB (88%)
Default : Yes
Forced : No

Audio
ID : 2
Format : AAC
Format/Info : Advanced Audio Codec
Format profile : HE-AAC / LC
Format settings : Explicit
Codec ID : A_AAC-2
Duration : 58 min 27 s
Bit rate : 66.2 kb/s
Channel(s) : 2 channels
Channel positions : Front: L R
Sampling rate : 48.0 kHz / 24.0 kHz
Frame rate : 23.438 FPS (1024 SPF)
Compression mode : Lossy
Delay relative to video : 23 ms
Stream size : 27.8 MiB (12%)
Language : English
Default : Yes
Forced : No

Text
ID : 3
Format : UTF-8
Codec ID : S_TEXT/UTF8
Codec ID/Info : UTF-8 Plain Text
Duration : 57 min 47 s
Bit rate : 96 b/s
Count of elements : 1317
Stream size : 41.0 KiB (0%)
Language : English
Default : Yes
Forced : No

Download

Direct download files get automatically deleted after a month or so. Posted on : 05/07/2018

[collapse]
Details and Download | S03E06

General
Format : Matroska
Format version : Version 4 / Version 2
File size : 247 MiB
Duration : 1 h 0 min
Overall bit rate : 575 kb/s
Movie name : Billions.S03E06.The.Third.Ortolan.720p.WEBRip.2CH.x265.HEVC
Encoded date : UTC 2018-04-30 08:22:05
Writing application : mkvmerge v22.0.0 (‘At The End Of The World’) 32-bit
Writing library : libebml v1.3.5 + libmatroska v1.4.8

Video
ID : 1
Format : HEVC
Format/Info : High Efficiency Video Coding
Format profile : [email protected]@Main
Codec ID : V_MPEGH/ISO/HEVC
Duration : 1 h 0 min
Bit rate : 507 kb/s
Width : 1 280 pixels
Height : 720 pixels
Display aspect ratio : 16:9
Frame rate mode : Constant
Frame rate : 23.976 (24000/1001) FPS
Color space : YUV
Chroma subsampling : 4:2:0
Bit depth : 8 bits
Bits/(Pixel*Frame) : 0.023
Stream size : 218 MiB (88%)
Default : Yes
Forced : No

Audio
ID : 2
Format : AAC
Format/Info : Advanced Audio Codec
Format profile : HE-AAC / LC
Format settings : Explicit
Codec ID : A_AAC-2
Duration : 1 h 0 min
Bit rate : 66.2 kb/s
Channel(s) : 2 channels
Channel positions : Front: L R
Sampling rate : 48.0 kHz / 24.0 kHz
Frame rate : 23.438 FPS (1024 SPF)
Compression mode : Lossy
Delay relative to video : 23 ms
Stream size : 28.3 MiB (11%)
Language : English
Default : Yes
Forced : No

Text
ID : 3
Format : UTF-8
Codec ID : S_TEXT/UTF8
Codec ID/Info : UTF-8 Plain Text
Duration : 59 min 29 s
Bit rate : 86 b/s
Count of elements : 1310
Stream size : 37.7 KiB (0%)
Language : English
Default : Yes
Forced : No

Download

Direct download files get automatically deleted after a month or so. Posted on : 04/30/2018

[collapse]
Details and Download | S03E05

General
Format : Matroska
Format version : Version 4 / Version 2
File size : 231 MiB
Duration : 55 min 52 s
Overall bit rate : 578 kb/s
Movie name : Billions.S03E05.Flaw.in.the.Death.Star.720p.WEBRip.2CH.x265.HEVC
Encoded date : UTC 2018-04-23 07:52:43
Writing application : mkvmerge v22.0.0 (‘At The End Of The World’) 32-bit
Writing library : libebml v1.3.5 + libmatroska v1.4.8

Video
ID : 1
Format : HEVC
Format/Info : High Efficiency Video Coding
Format profile : [email protected]@Main
Codec ID : V_MPEGH/ISO/HEVC
Duration : 55 min 52 s
Bit rate : 512 kb/s
Width : 1 280 pixels
Height : 720 pixels
Display aspect ratio : 16:9
Frame rate mode : Constant
Frame rate : 23.976 (24000/1001) FPS
Color space : YUV
Chroma subsampling : 4:2:0
Bit depth : 8 bits
Bits/(Pixel*Frame) : 0.023
Stream size : 205 MiB (89%)
Default : Yes
Forced : No

Audio
ID : 2
Format : AAC
Format/Info : Advanced Audio Codec
Format profile : HE-AAC / LC
Format settings : Explicit
Codec ID : A_AAC-2
Duration : 55 min 52 s
Bit rate : 63.7 kb/s
Channel(s) : 2 channels
Channel positions : Front: L R
Sampling rate : 48.0 kHz / 24.0 kHz
Frame rate : 23.438 FPS (1024 SPF)
Compression mode : Lossy
Delay relative to video : 23 ms
Stream size : 25.4 MiB (11%)
Language : English
Default : Yes
Forced : No

Text
ID : 3
Format : UTF-8
Codec ID : S_TEXT/UTF8
Codec ID/Info : UTF-8 Plain Text
Duration : 55 min 17 s
Bit rate : 93 b/s
Count of elements : 1285
Stream size : 37.8 KiB (0%)
Language : English
Default : Yes
Forced : No

Download

Direct download files get automatically deleted after a month or so. Posted on : 04/23/2018

[collapse]
Details and Download | S03E04

General
Format : Matroska
Format version : Version 4 / Version 2
File size : 231 MiB
Duration : 57 min 21 s
Overall bit rate : 563 kb/s
Movie name : Billions.S03E04.Hell.Of.A.Ride.720p.WEBRip.2CH.x265.HEVC
Encoded date : UTC 2018-04-16 07:49:25
Writing application : mkvmerge v22.0.0 (‘At The End Of The World’) 32-bit
Writing library : libebml v1.3.5 + libmatroska v1.4.8

Video
ID : 1
Format : HEVC
Format/Info : High Efficiency Video Coding
Format profile : [email protected]@Main
Codec ID : V_MPEGH/ISO/HEVC
Duration : 57 min 21 s
Bit rate : 495 kb/s
Width : 1 280 pixels
Height : 720 pixels
Display aspect ratio : 16:9
Frame rate mode : Constant
Frame rate : 23.976 (24000/1001) FPS
Color space : YUV
Chroma subsampling : 4:2:0
Bit depth : 8 bits
Bits/(Pixel*Frame) : 0.022
Stream size : 203 MiB (88%)
Default : Yes
Forced : No

Audio
ID : 2
Format : AAC
Format/Info : Advanced Audio Codec
Format profile : HE-AAC / LC
Format settings : NBC
Codec ID : A_AAC-2
Duration : 57 min 21 s
Bit rate : 66.2 kb/s
Channel(s) : 2 channels
Channel(s)_Original : 22 channels
Channel positions : Front: 6, Back: 15, LFE
Sampling rate : 48.0 kHz / 24.0 kHz
Frame rate : 23.438 FPS (1024 SPF)
Compression mode : Lossy
Delay relative to video : 23 ms
Stream size : 27.3 MiB (12%)
Default : Yes
Forced : No

Text
ID : 3
Format : UTF-8
Codec ID : S_TEXT/UTF8
Codec ID/Info : UTF-8 Plain Text
Duration : 56 min 45 s
Bit rate : 82 b/s
Count of elements : 1166
Stream size : 34.1 KiB (0%)
Language : English
Default : Yes
Forced : No

Download

Direct download files get automatically deleted after a month or so. Posted on : 04/16/2018

[collapse]
Details and Download | S03E03

General
Format : Matroska
Format version : Version 4 / Version 2
File size : 262 MiB
Duration : 57 min 26 s
Overall bit rate : 637 kb/s
Movie name : Billions.S03E03.A.Generation.Too.Late.720p.WEBRip.2CH.x265.HEVC
Encoded date : UTC 2018-04-09 09:45:43
Writing application : mkvmerge v22.0.0 (‘At The End Of The World’) 32-bit
Writing library : libebml v1.3.5 + libmatroska v1.4.8

Video
ID : 1
Format : HEVC
Format/Info : High Efficiency Video Coding
Format profile : [email protected]@Main
Codec ID : V_MPEGH/ISO/HEVC
Duration : 57 min 26 s
Bit rate : 570 kb/s
Width : 1 280 pixels
Height : 720 pixels
Display aspect ratio : 16:9
Frame rate mode : Constant
Frame rate : 23.976 (24000/1001) FPS
Color space : YUV
Chroma subsampling : 4:2:0
Bit depth : 8 bits
Bits/(Pixel*Frame) : 0.026
Stream size : 234 MiB (89%)
Default : Yes
Forced : No

Audio
ID : 2
Format : AAC
Format/Info : Advanced Audio Codec
Format profile : HE-AAC / LC
Format settings : Explicit
Codec ID : A_AAC-2
Duration : 57 min 25 s
Bit rate : 66.2 kb/s
Channel(s) : 2 channels
Channel positions : Front: L R
Sampling rate : 48.0 kHz / 24.0 kHz
Frame rate : 23.438 FPS (1024 SPF)
Compression mode : Lossy
Delay relative to video : 23 ms
Stream size : 26.7 MiB (10%)
Default : Yes
Forced : No

Text
ID : 3
Format : UTF-8
Codec ID : S_TEXT/UTF8
Codec ID/Info : UTF-8 Plain Text
Duration : 57 min 20 s
Bit rate : 100 b/s
Count of elements : 1270
Stream size : 42.2 KiB (0%)
Default : Yes
Forced : No

Download

Direct download files get automatically deleted after a month or so. Posted on : 04/09/2018

[collapse]
Details and Download | S03E02

General
Format : Matroska
Format version : Version 4 / Version 2
File size : 247 MiB
Duration : 55 min 59 s
Overall bit rate : 617 kb/s
Movie name : Billions.S03E02.The.Wrong.Maria.Gonzalez.720p.WEBRip.2CH.x265.HEVC
Encoded date : UTC 2018-04-02 07:34:42
Writing application : mkvmerge v21.0.0 (‘Tardigrades Will Inherit The Earth’) 32-bit
Writing library : libebml v1.3.5 + libmatroska v1.4.8

Video
ID : 1
Format : HEVC
Format/Info : High Efficiency Video Coding
Format profile : [email protected]@Main
Codec ID : V_MPEGH/ISO/HEVC
Duration : 55 min 59 s
Bit rate : 551 kb/s
Width : 1 280 pixels
Height : 720 pixels
Display aspect ratio : 16:9
Frame rate mode : Constant
Frame rate : 23.976 (24000/1001) FPS
Color space : YUV
Chroma subsampling : 4:2:0
Bit depth : 8 bits
Bits/(Pixel*Frame) : 0.025
Stream size : 221 MiB (89%)
Default : Yes
Forced : No

Audio
ID : 2
Format : AAC
Format/Info : Advanced Audio Codec
Format profile : HE-AAC / LC
Format settings : Explicit
Codec ID : A_AAC-2
Duration : 55 min 59 s
Bit rate : 64.3 kb/s
Channel(s) : 2 channels
Channel positions : Front: L R
Sampling rate : 48.0 kHz / 24.0 kHz
Frame rate : 23.438 FPS (1024 SPF)
Compression mode : Lossy
Delay relative to video : 23 ms
Stream size : 25.8 MiB (10%)
Default : Yes
Forced : No

Text
ID : 3
Format : UTF-8
Codec ID : S_TEXT/UTF8
Codec ID/Info : UTF-8 Plain Text
Duration : 55 min 22 s
Bit rate : 92 b/s
Count of elements : 1153
Stream size : 37.5 KiB (0%)
Default : Yes
Forced : No

Download

Direct download files get automatically deleted after a month or so. Posted on : 04/02/2018

[collapse]
Details and Download | S03E01

General
Format : Matroska
Format version : Version 4 / Version 2
File size : 244 MiB
Duration : 59 min 2 s
Overall bit rate : 578 kb/s
Movie name : Billions.S03E01.Tie.Goes.to.the.Runner.720p.WEBRip.2CH.x265.HEVC
Encoded date : UTC 2018-03-25 16:33:34
Writing application : mkvmerge v21.0.0 (‘Tardigrades Will Inherit The Earth’) 32-bit
Writing library : libebml v1.3.5 + libmatroska v1.4.8

Video
ID : 1
Format : HEVC
Format/Info : High Efficiency Video Coding
Format profile : [email protected]@Main
Codec ID : V_MPEGH/ISO/HEVC
Duration : 59 min 2 s
Bit rate : 513 kb/s
Width : 1 280 pixels
Height : 720 pixels
Display aspect ratio : 16:9
Frame rate mode : Constant
Frame rate : 23.976 (24000/1001) FPS
Color space : YUV
Chroma subsampling : 4:2:0
Bit depth : 8 bits
Bits/(Pixel*Frame) : 0.023
Stream size : 217 MiB (89%)
Default : Yes
Forced : No

Audio
ID : 2
Format : AAC
Format/Info : Advanced Audio Codec
Format profile : HE-AAC / LC
Format settings : Explicit
Codec ID : A_AAC-2
Duration : 59 min 2 s
Bit rate : 63.0 kb/s
Channel(s) : 2 channels
Channel positions : Front: L R
Sampling rate : 48.0 kHz / 24.0 kHz
Frame rate : 23.438 FPS (1024 SPF)
Compression mode : Lossy
Delay relative to video : 23 ms
Stream size : 26.6 MiB (11%)
Default : Yes
Forced : No

Text
ID : 3
Format : UTF-8
Codec ID : S_TEXT/UTF8
Codec ID/Info : UTF-8 Plain Text
Duration : 57 min 53 s
Bit rate : 96 b/s
Count of elements : 1283
Stream size : 40.9 KiB (0%)
Default : Yes
Forced : No

Download

Direct download files get automatically deleted after a month or so. Posted on : 03/25/2018

[collapse]

Seasons 01 & 02 magnet links

You may also like...

error: nah :p~