Expedition Unknown

1h | Adventure, Mystery, Reality-TV | TV Series (2015– )

An archeologist travels around the world looking for unknown and missing artifacts from throughout time.

Watch trailer

Details and Download | Egypts.Lost.Queens

General
Format : Matroska
Format version : Version 4 / Version 2
File size : 404 MiB
Duration : 41 min 59 s
Overall bit rate : 1 345 kb/s
Movie name : Expedition.Unknown.Egypts.Lost.Queens.720p.HDTV.2CH.x265.HEVC
Encoded date : UTC 2018-06-17 18:00:58
Writing application : mkvmerge v24.0.0 (‘Beyond The Pale’) 32-bit
Writing library : libebml v1.3.6 + libmatroska v1.4.9

Video
ID : 1
Format : HEVC
Format/Info : High Efficiency Video Coding
Format profile : [email protected]@Main
Codec ID : V_MPEGH/ISO/HEVC
Duration : 41 min 59 s
Bit rate : 1 249 kb/s
Width : 1 280 pixels
Height : 720 pixels
Display aspect ratio : 16:9
Frame rate mode : Constant
Frame rate : 29.970 (30000/1001) FPS
Color space : YUV
Chroma subsampling : 4:2:0
Bit depth : 8 bits
Bits/(Pixel*Frame) : 0.045
Default : Yes
Forced : No
Color range : Limited
Color primaries : BT.709
Transfer characteristics : BT.709
Matrix coefficients : BT.709

Audio
ID : 2
Format : Opus
Codec ID : A_OPUS
Duration : 41 min 59 s
Bit rate : 93.4 kb/s
Channel(s) : 2 channels
Channel positions : Front: L R
Sampling rate : 48.0 kHz
Frame rate : 50.000 FPS (960 SPF)
Compression mode : Lossy
Stream size : 28.1 MiB (7%)
Title : Stereo
Language : English
Default : Yes
Forced : No

Text
ID : 3
Format : ASS
Codec ID : S_TEXT/ASS
Codec ID/Info : Advanced Sub Station Alpha
Duration : 41 min 56 s
Bit rate : 181 b/s
Count of elements : 1065
Compression mode : Lossless
Stream size : 55.8 KiB (0%)
Default : Yes
Forced : Yes

Download

Direct download files get automatically deleted after a month or so. Posted on : 06/19/2018

[collapse]
Details and Download | Great.Women.Of.Egypt

General
Format : Matroska
Format version : Version 4 / Version 2
File size : 424 MiB
Duration : 42 min 0 s
Overall bit rate : 1 412 kb/s
Movie name : Expedition.Unknown.Great.Women.Of.Egypt.720p.HDTV.2CH.x265.HEVC
Encoded date : UTC 2018-06-17 18:02:15
Writing application : mkvmerge v24.0.0 (‘Beyond The Pale’) 32-bit
Writing library : libebml v1.3.6 + libmatroska v1.4.9

Video
ID : 1
Format : HEVC
Format/Info : High Efficiency Video Coding
Format profile : [email protected]@Main
Codec ID : V_MPEGH/ISO/HEVC
Duration : 42 min 0 s
Bit rate : 1 314 kb/s
Width : 1 280 pixels
Height : 720 pixels
Display aspect ratio : 16:9
Frame rate mode : Constant
Frame rate : 29.970 (30000/1001) FPS
Color space : YUV
Chroma subsampling : 4:2:0
Bit depth : 8 bits
Bits/(Pixel*Frame) : 0.048
Stream size : 395 MiB (93%)
Default : Yes
Forced : No
Color range : Limited
Color primaries : BT.709
Transfer characteristics : BT.709
Matrix coefficients : BT.709

Audio
ID : 2
Format : Opus
Codec ID : A_OPUS
Duration : 42 min 0 s
Bit rate : 94.8 kb/s
Channel(s) : 2 channels
Channel positions : Front: L R
Sampling rate : 48.0 kHz
Frame rate : 50.000 FPS (960 SPF)
Compression mode : Lossy
Stream size : 28.5 MiB (7%)
Title : Stereo
Language : English
Default : Yes
Forced : No

Text
ID : 3
Format : ASS
Codec ID : S_TEXT/ASS
Codec ID/Info : Advanced Sub Station Alpha
Duration : 41 min 58 s
Bit rate : 169 b/s
Count of elements : 903
Compression mode : Lossless
Stream size : 52.0 KiB (0%)
Default : Yes
Forced : Yes

Download

Direct download files get automatically deleted after a month or so. Posted on : 06/19/2018

[collapse]
Details and Download | After.The.Hunt.More.Secrets.Of.Egypt

General
Format : Matroska
Format version : Version 4 / Version 2
File size : 359 MiB
Duration : 42 min 0 s
Overall bit rate : 1 196 kb/s
Movie name : Expedition.Unknown.After.The.Hunt.More.Secrets.Of.Egypt.720p.HDTV.2CH.x265.HEVC
Encoded date : UTC 2018-06-18 21:49:44
Writing application : mkvmerge v24.0.0 (‘Beyond The Pale’) 32-bit
Writing library : libebml v1.3.6 + libmatroska v1.4.9

Video
ID : 1
Format : HEVC
Format/Info : High Efficiency Video Coding
Format profile : [email protected]@Main
Codec ID : V_MPEGH/ISO/HEVC
Duration : 42 min 0 s
Bit rate : 1 103 kb/s
Width : 1 280 pixels
Height : 720 pixels
Display aspect ratio : 16:9
Frame rate mode : Constant
Frame rate : 29.970 (30000/1001) FPS
Color space : YUV
Chroma subsampling : 4:2:0
Bit depth : 8 bits
Bits/(Pixel*Frame) : 0.040
Stream size : 331 MiB (92%)
Default : Yes
Forced : No
Color range : Limited
Color primaries : BT.709
Transfer characteristics : BT.709
Matrix coefficients : BT.709

Audio
ID : 2
Format : Opus
Codec ID : A_OPUS
Duration : 42 min 0 s
Bit rate : 90.6 kb/s
Channel(s) : 2 channels
Channel positions : Front: L R
Sampling rate : 48.0 kHz
Frame rate : 50.000 FPS (960 SPF)
Compression mode : Lossy
Stream size : 27.2 MiB (8%)
Title : Stereo
Language : English
Default : Yes
Forced : No

Text
ID : 3
Format : ASS
Codec ID : S_TEXT/ASS
Codec ID/Info : Advanced Sub Station Alpha
Duration : 41 min 57 s
Bit rate : 225 b/s
Count of elements : 1104
Compression mode : Lossless
Stream size : 69.3 KiB (0%)
Default : Yes
Forced : Yes

Download

Direct download files get automatically deleted after a month or so. Posted on : 06/19/2018

[collapse]

Details and Download | Shangri-La.Found

General
Format : Matroska
Format version : Version 4 / Version 2
File size : 547 MiB
Duration : 41 min 50 s
Overall bit rate : 1 829 kb/s
Movie name : Expedition.Unknown.Shangri-La.Found.720p.HDTV.2CH.x265.HEVC
Encoded date : UTC 2018-06-16 19:57:45
Writing application : mkvmerge v24.0.0 (‘Beyond The Pale’) 32-bit
Writing library : libebml v1.3.6 + libmatroska v1.4.9

Video
ID : 1
Format : HEVC
Format/Info : High Efficiency Video Coding
Format profile : [email protected]@Main
Codec ID : V_MPEGH/ISO/HEVC
Duration : 41 min 50 s
Bit rate : 1 737 kb/s
Width : 1 280 pixels
Height : 720 pixels
Display aspect ratio : 16:9
Frame rate mode : Constant
Frame rate : 29.970 (30000/1001) FPS
Color space : YUV
Chroma subsampling : 4:2:0
Bit depth : 8 bits
Bits/(Pixel*Frame) : 0.063
Stream size : 520 MiB (95%)
Default : Yes
Forced : No
Color range : Limited
Color primaries : BT.709
Transfer characteristics : BT.709
Matrix coefficients : BT.709

Audio
ID : 2
Format : Opus
Codec ID : A_OPUS
Duration : 41 min 50 s
Bit rate : 88.2 kb/s
Channel(s) : 2 channels
Channel positions : Front: L R
Sampling rate : 48.0 kHz
Frame rate : 50.000 FPS (960 SPF)
Compression mode : Lossy
Stream size : 26.6 MiB (5%)
Title : Stereo
Language : English
Default : Yes
Forced : No

Text
ID : 3
Format : ASS
Codec ID : S_TEXT/ASS
Codec ID/Info : Advanced Sub Station Alpha
Duration : 41 min 45 s
Bit rate : 184 b/s
Count of elements : 1000
Compression mode : Lossless
Stream size : 56.5 KiB (0%)
Language : English
Default : Yes
Forced : Yes

Download

Direct download files get automatically deleted after a month or so. Posted on : 06/16/2018

[collapse]

Details and Download | Incan.Kings.Mummy

General
Format : Matroska
Format version : Version 4 / Version 2
File size : 488 MiB
Duration : 42 min 0 s
Overall bit rate : 1 623 kb/s
Movie name : Expedition.Unknown.Incan.Kings.Mummy.720p.HDTV.2CH.x265.HEVC
Encoded date : UTC 2018-06-16 10:19:05
Writing application : mkvmerge v24.0.0 (‘Beyond The Pale’) 32-bit
Writing library : libebml v1.3.6 + libmatroska v1.4.9

Video
ID : 1
Format : HEVC
Format/Info : High Efficiency Video Coding
Format profile : [email protected]@Main
Codec ID : V_MPEGH/ISO/HEVC
Duration : 42 min 0 s
Bit rate : 1 522 kb/s
Width : 1 280 pixels
Height : 720 pixels
Display aspect ratio : 16:9
Frame rate mode : Constant
Frame rate : 29.970 (30000/1001) FPS
Color space : YUV
Chroma subsampling : 4:2:0
Bit depth : 8 bits
Bits/(Pixel*Frame) : 0.055
Stream size : 457 MiB (94%)
Default : Yes
Forced : No
Color range : Limited
Color primaries : BT.709
Transfer characteristics : BT.709
Matrix coefficients : BT.709

Audio
ID : 2
Format : Opus
Codec ID : A_OPUS
Duration : 42 min 0 s
Bit rate : 98.9 kb/s
Channel(s) : 2 channels
Channel positions : Front: L R
Sampling rate : 48.0 kHz
Frame rate : 50.000 FPS (960 SPF)
Compression mode : Lossy
Stream size : 29.7 MiB (6%)
Title : Stereo
Default : Yes
Forced : No

Text
ID : 3
Format : ASS
Codec ID : S_TEXT/ASS
Codec ID/Info : Advanced Sub Station Alpha
Duration : 41 min 58 s
Bit rate : 174 b/s
Count of elements : 931
Compression mode : Lossless
Stream size : 53.7 KiB (0%)
Default : Yes
Forced : Yes

Download

Direct download files get automatically deleted after a month or so. Posted on : 06/16/2018

[collapse]

Details and Download | Lost.Mexican.City

General
Format : Matroska
Format version : Version 4 / Version 2
File size : 419 MiB
Duration : 41 min 51 s
Overall bit rate : 1 401 kb/s
Movie name : Expedition.Unknown.Lost.Mexican.City.720p.HDTV.2CH.x265.HEVC
Encoded date : UTC 2018-06-15 18:58:39
Writing application : mkvmerge v24.0.0 (‘Beyond The Pale’) 32-bit
Writing library : libebml v1.3.6 + libmatroska v1.4.9

Video
ID : 1
Format : HEVC
Format/Info : High Efficiency Video Coding
Format profile : [email protected]@Main
Codec ID : V_MPEGH/ISO/HEVC
Duration : 41 min 51 s
Bit rate : 1 302 kb/s
Width : 1 280 pixels
Height : 720 pixels
Display aspect ratio : 16:9
Frame rate mode : Constant
Frame rate : 29.970 (30000/1001) FPS
Color space : YUV
Chroma subsampling : 4:2:0
Bit depth : 8 bits
Bits/(Pixel*Frame) : 0.047
Stream size : 390 MiB (93%)
Default : Yes
Forced : No
Color range : Limited
Color primaries : BT.709
Transfer characteristics : BT.709
Matrix coefficients : BT.709

Audio
ID : 2
Format : Opus
Codec ID : A_OPUS
Duration : 41 min 50 s
Bit rate : 96.1 kb/s
Channel(s) : 2 channels
Channel positions : Front: L R
Sampling rate : 48.0 kHz
Frame rate : 50.000 FPS (960 SPF)
Compression mode : Lossy
Stream size : 28.8 MiB (7%)
Title : Stereo
Default : Yes
Forced : No

Text
ID : 3
Format : ASS
Codec ID : S_TEXT/ASS
Codec ID/Info : Advanced Sub Station Alpha
Duration : 41 min 44 s
Bit rate : 163 b/s
Count of elements : 871
Compression mode : Lossless
Stream size : 50.1 KiB (0%)
Default : Yes
Forced : Yes

Download

Direct download files get automatically deleted after a month or so. Posted on : 06/15/2018

[collapse]

Details and Download | Columbus.Unearthed

General
Format : Matroska
Format version : Version 4 / Version 2
File size : 376 MiB
Duration : 41 min 58 s
Overall bit rate : 1 252 kb/s
Movie name : Expedition.Unknown.Columbus.Unearthed.720p.HDTV.2CH.x265.HEVC
Encoded date : UTC 2018-06-14 21:26:51
Writing application : mkvmerge v24.0.0 (‘Beyond The Pale’) 32-bit
Writing library : libebml v1.3.6 + libmatroska v1.4.9

Video
ID : 1
Format : HEVC
Format/Info : High Efficiency Video Coding
Format profile : [email protected]@Main
Codec ID : V_MPEGH/ISO/HEVC
Duration : 41 min 58 s
Bit rate : 1 159 kb/s
Width : 1 280 pixels
Height : 720 pixels
Display aspect ratio : 16:9
Frame rate mode : Constant
Frame rate : 23.976 (24000/1001) FPS
Color space : YUV
Chroma subsampling : 4:2:0
Bit depth : 8 bits
Bits/(Pixel*Frame) : 0.052
Stream size : 348 MiB (93%)
Default : Yes
Forced : No
Color range : Limited
Color primaries : BT.709
Transfer characteristics : BT.709
Matrix coefficients : BT.709

Audio
ID : 2
Format : Opus
Codec ID : A_OPUS
Duration : 41 min 58 s
Bit rate : 91.0 kb/s
Channel(s) : 2 channels
Channel positions : Front: L R
Sampling rate : 48.0 kHz
Frame rate : 50.000 FPS (960 SPF)
Compression mode : Lossy
Stream size : 27.3 MiB (7%)
Title : Stereo
Language : English
Default : Yes
Forced : No

Text
ID : 3
Format : ASS
Codec ID : S_TEXT/ASS
Codec ID/Info : Advanced Sub Station Alpha
Duration : 41 min 51 s
Bit rate : 170 b/s
Count of elements : 880
Compression mode : Lossless
Stream size : 52.2 KiB (0%)
Language : English
Default : Yes
Forced : Yes

Download

Direct download files get automatically deleted after a month or so. Posted on : 06/15/2018

[collapse]

Details and Download | True.Cross.Of.Christ

General
Format : Matroska
Format version : Version 4 / Version 2
File size : 439 MiB
Duration : 42 min 0 s
Overall bit rate : 1 463 kb/s
Movie name : Expedition.Unknown.True.Cross.Of.Christ.720p.HDTV.2CH.x265.HEVC
Encoded date : UTC 2018-06-13 20:08:48
Writing application : mkvmerge v24.0.0 (‘Beyond The Pale’) 32-bit
Writing library : libebml v1.3.6 + libmatroska v1.4.9

Video
ID : 1
Format : HEVC
Format/Info : High Efficiency Video Coding
Format profile : [email protected]@Main
Codec ID : V_MPEGH/ISO/HEVC
Duration : 42 min 0 s
Bit rate : 1 362 kb/s
Width : 1 280 pixels
Height : 720 pixels
Display aspect ratio : 16:9
Frame rate mode : Constant
Frame rate : 23.976 (24000/1001) FPS
Color space : YUV
Chroma subsampling : 4:2:0
Bit depth : 8 bits
Bits/(Pixel*Frame) : 0.062
Stream size : 409 MiB (93%)
Default : Yes
Forced : No
Color range : Limited
Color primaries : BT.709
Transfer characteristics : BT.709
Matrix coefficients : BT.709

Audio
ID : 2
Format : Opus
Codec ID : A_OPUS
Duration : 42 min 0 s
Bit rate : 98.2 kb/s
Channel(s) : 2 channels
Channel positions : Front: L R
Sampling rate : 48.0 kHz
Frame rate : 50.000 FPS (960 SPF)
Compression mode : Lossy
Stream size : 29.5 MiB (7%)
Default : Yes
Forced : No

Download

No subs are available

Direct download files get automatically deleted after a month or so. Posted on : 06/14/2018

[collapse]

Details and Download | Viking.Secrets

General
Format : Matroska
Format version : Version 4 / Version 2
File size : 434 MiB
Duration : 42 min 3 s
Overall bit rate : 1 443 kb/s
Movie name : Expedition.Unknown.Viking.Secrets.720p.HDTV.2CH.x265.HEVC
Encoded date : UTC 2018-06-12 16:19:32
Writing application : mkvmerge v24.0.0 (‘Beyond The Pale’) 32-bit
Writing library : libebml v1.3.6 + libmatroska v1.4.9

Video
ID : 1
Format : HEVC
Format/Info : High Efficiency Video Coding
Format profile : [email protected]@Main
Codec ID : V_MPEGH/ISO/HEVC
Duration : 42 min 3 s
Bit rate : 1 345 kb/s
Width : 1 280 pixels
Height : 720 pixels
Display aspect ratio : 16:9
Frame rate mode : Constant
Frame rate : 23.976 (24000/1001) FPS
Color space : YUV
Chroma subsampling : 4:2:0
Bit depth : 8 bits
Bits/(Pixel*Frame) : 0.061
Stream size : 405 MiB (93%)
Default : Yes
Forced : No
Color range : Limited
Color primaries : BT.709
Transfer characteristics : BT.709
Matrix coefficients : BT.709

Audio
ID : 2
Format : AAC
Format/Info : Advanced Audio Codec
Format profile : LC
Codec ID : A_AAC-2
Duration : 42 min 3 s
Bit rate : 96.0 kb/s
Channel(s) : 2 channels
Channel positions : Front: L R
Sampling rate : 48.0 kHz
Frame rate : 46.875 FPS (1024 SPF)
Compression mode : Lossy
Stream size : 29.0 MiB (7%)
Title : Stereo
Language : English
Default : Yes
Forced : No

Text
ID : 3
Format : ASS
Codec ID : S_TEXT/ASS
Codec ID/Info : Advanced Sub Station Alpha
Duration : 42 min 0 s
Bit rate : 176 b/s
Count of elements : 949
Compression mode : Lossless
Stream size : 54.3 KiB (0%)
Default : Yes
Forced : Yes

Download

Direct download files get automatically deleted after a month or so. Posted on : 06/12/2018

[collapse]

Details and Download | Legend.of.The.Snake.King.Part.3

General
Format : Matroska
Format version : Version 4 / Version 2
File size : 287 MiB
Duration : 40 min 27 s
Overall bit rate : 993 kb/s
Movie name : Expedition.Unknown.Series.Legend.of.The.Snake.King.Part.3.720p.HDTV.2CH.x265.HEVC
Encoded date : UTC 2018-06-11 19:49:54
Writing application : mkvmerge v24.0.0 (‘Beyond The Pale’) 32-bit
Writing library : libebml v1.3.6 + libmatroska v1.4.9

Video
ID : 1
Format : HEVC
Format/Info : High Efficiency Video Coding
Format profile : [email protected]@Main
Codec ID : V_MPEGH/ISO/HEVC
Duration : 40 min 27 s
Bit rate : 894 kb/s
Width : 1 280 pixels
Height : 720 pixels
Display aspect ratio : 16:9
Frame rate mode : Constant
Frame rate : 23.976 (24000/1001) FPS
Color space : YUV
Chroma subsampling : 4:2:0
Bit depth : 8 bits
Bits/(Pixel*Frame) : 0.040
Stream size : 259 MiB (90%)
Default : Yes
Forced : No
Color range : Limited
Color primaries : BT.709
Transfer characteristics : BT.709
Matrix coefficients : BT.709

Audio
ID : 2
Format : AAC
Format/Info : Advanced Audio Codec
Format profile : LC
Codec ID : A_AAC-2
Duration : 40 min 27 s
Bit rate : 96.0 kb/s
Channel(s) : 2 channels
Channel positions : Front: L R
Sampling rate : 48.0 kHz
Frame rate : 46.875 FPS (1024 SPF)
Compression mode : Lossy
Stream size : 27.9 MiB (10%)
Language : English
Default : Yes
Forced : No

Text
ID : 3
Format : ASS
Codec ID : S_TEXT/ASS
Codec ID/Info : Advanced Sub Station Alpha
Duration : 40 min 24 s
Bit rate : 246 b/s
Count of elements : 1102
Compression mode : Lossless
Stream size : 72.9 KiB (0%)
Default : Yes
Forced : Yes

Download

Direct download files get automatically deleted after a month or so. Posted on : 06/11/2018

[collapse]
Details and Download | Legend.of.The.Snake.King.Part.2

General
Format : Matroska
Format version : Version 4 / Version 2
File size : 476 MiB
Duration : 41 min 32 s
Overall bit rate : 1 603 kb/s
Movie name : Expedition.Unknown.Series.Legend.of.The.Snake.King.Part.2.720p.HDTV.2CH.x265.HEVC
Encoded date : UTC 2018-06-11 19:48:35
Writing application : mkvmerge v24.0.0 (‘Beyond The Pale’) 32-bit
Writing library : libebml v1.3.6 + libmatroska v1.4.9

Video
ID : 1
Format : HEVC
Format/Info : High Efficiency Video Coding
Format profile : [email protected]@Main
Codec ID : V_MPEGH/ISO/HEVC
Duration : 41 min 32 s
Bit rate : 1 504 kb/s
Width : 1 280 pixels
Height : 720 pixels
Display aspect ratio : 16:9
Frame rate mode : Constant
Frame rate : 23.976 (24000/1001) FPS
Color space : YUV
Chroma subsampling : 4:2:0
Bit depth : 8 bits
Bits/(Pixel*Frame) : 0.068
Stream size : 447 MiB (94%)
Default : Yes
Forced : No
Color range : Limited
Color primaries : BT.709
Transfer characteristics : BT.709
Matrix coefficients : BT.709

Audio
ID : 2
Format : AAC
Format/Info : Advanced Audio Codec
Format profile : LC
Codec ID : A_AAC-2
Duration : 41 min 32 s
Bit rate : 96.0 kb/s
Channel(s) : 2 channels
Channel positions : Front: L R
Sampling rate : 48.0 kHz
Frame rate : 46.875 FPS (1024 SPF)
Compression mode : Lossy
Stream size : 28.6 MiB (6%)
Language : English
Default : Yes
Forced : No

Text
ID : 3
Format : ASS
Codec ID : S_TEXT/ASS
Codec ID/Info : Advanced Sub Station Alpha
Duration : 41 min 28 s
Bit rate : 195 b/s
Count of elements : 901
Compression mode : Lossless
Stream size : 59.4 KiB (0%)
Default : Yes
Forced : Yes

Download

Direct download files get automatically deleted after a month or so. Posted on : 06/11/2018

[collapse]
Details and Download | Legend.of.The.Snake.King.Part.1

General
Format : Matroska
Format version : Version 4 / Version 2
File size : 386 MiB
Duration : 40 min 32 s
Overall bit rate : 1 331 kb/s
Movie name : Expedition.Unknown.Series.Legend.of.The.Snake.King.Part.1.720p.HDTV.2CH.x265.HEVC
Encoded date : UTC 2018-06-11 19:46:48
Writing application : mkvmerge v24.0.0 (‘Beyond The Pale’) 32-bit
Writing library : libebml v1.3.6 + libmatroska v1.4.9

Video
ID : 1
Format : HEVC
Format/Info : High Efficiency Video Coding
Format profile : [email protected]@Main
Codec ID : V_MPEGH/ISO/HEVC
Duration : 40 min 32 s
Bit rate : 1 232 kb/s
Width : 1 280 pixels
Height : 720 pixels
Display aspect ratio : 16:9
Frame rate mode : Constant
Frame rate : 23.976 (24000/1001) FPS
Color space : YUV
Chroma subsampling : 4:2:0
Bit depth : 8 bits
Bits/(Pixel*Frame) : 0.056
Stream size : 357 MiB (93%)
Default : Yes
Forced : No
Color range : Limited
Color primaries : BT.709
Transfer characteristics : BT.709
Matrix coefficients : BT.709

Audio
ID : 2
Format : AAC
Format/Info : Advanced Audio Codec
Format profile : LC
Codec ID : A_AAC-2
Duration : 40 min 32 s
Bit rate : 96.0 kb/s
Channel(s) : 2 channels
Channel positions : Front: L R
Sampling rate : 48.0 kHz
Frame rate : 46.875 FPS (1024 SPF)
Compression mode : Lossy
Stream size : 27.9 MiB (7%)
Language : English
Default : Yes
Forced : No

Text
ID : 3
Format : ASS
Codec ID : S_TEXT/ASS
Codec ID/Info : Advanced Sub Station Alpha
Duration : 40 min 27 s
Bit rate : 223 b/s
Count of elements : 984
Compression mode : Lossless
Stream size : 66.2 KiB (0%)
Default : Yes
Forced : Yes

Download

Direct download files get automatically deleted after a month or so. Posted on : 06/11/2018

[collapse]

You may also like...

error: nah :p~