Gunpowder

Drama | TV Mini-Series (2017– )

British activist Guy Fawkes and a group of provincial English Catholics plan to blow up the House of Lords and kill King James I in the early 17th century.

Details and Download | S01E03

General
Format : Matroska
Format version : Version 4 / Version 2
File size : 527 MiB
Duration : 58 min 47 s
Overall bit rate : 1 254 kb/s
Movie name : Gunpowder.S01E03.1080p.HDTV.2CH.x265.HEVC
Encoded date : UTC 2017-11-05 14:17:45
Writing application : mkvmerge v17.0.0 (‘Be Ur Friend’) 32-bit
Writing library : libebml v1.3.5 + libmatroska v1.4.8

Video
ID : 1
Format : HEVC
Format/Info : High Efficiency Video Coding
Format profile : [email protected]@Main
Codec ID : V_MPEGH/ISO/HEVC
Duration : 58 min 47 s
Bit rate : 1 181 kb/s
Width : 1 920 pixels
Height : 800 pixels
Display aspect ratio : 2.40:1
Frame rate mode : Constant
Frame rate : 25.000 FPS
Color space : YUV
Chroma subsampling : 4:2:0
Bit depth : 8 bits
Bits/(Pixel*Frame) : 0.031
Stream size : 496 MiB (94%)
Default : Yes
Forced : No

Audio
ID : 2
Format : AAC
Format/Info : Advanced Audio Codec
Format profile : HE-AAC / LC
Format settings : Explicit
Codec ID : A_AAC-2
Duration : 58 min 46 s
Bit rate : 72.0 kb/s
Channel(s) : 2 channels
Channel positions : Front: L R
Sampling rate : 48.0 kHz / 24.0 kHz
Frame rate : 23.438 FPS (1024 SPF)
Compression mode : Lossy
Delay relative to video : 23 ms
Stream size : 29.9 MiB (6%)
Default : Yes
Forced : No

Text
ID : 3
Format : UTF-8
Codec ID : S_TEXT/UTF8
Codec ID/Info : UTF-8 Plain Text
Duration : 5 s 0 ms
Bit rate : 65 b/s
Count of elements : 1
Stream size : 41.0 Bytes (0%)
Default : Yes
Forced : No

Download

[collapse]
Details and Download | S01E02

General
Format : Matroska
Format version : Version 4 / Version 2
File size : 584 MiB
Duration : 58 min 38 s
Overall bit rate : 1 393 kb/s
Movie name : Gunpowder.S01E02.1080p.HDTV.2CH.x265.HEVC
Encoded date : UTC 2017-11-05 14:15:19
Writing application : mkvmerge v17.0.0 (‘Be Ur Friend’) 32-bit
Writing library : libebml v1.3.5 + libmatroska v1.4.8

Video
ID : 1
Format : HEVC
Format/Info : High Efficiency Video Coding
Format profile : [email protected]@Main
Codec ID : V_MPEGH/ISO/HEVC
Duration : 58 min 38 s
Bit rate : 1 321 kb/s
Width : 1 920 pixels
Height : 800 pixels
Display aspect ratio : 2.40:1
Frame rate mode : Constant
Frame rate : 25.000 FPS
Color space : YUV
Chroma subsampling : 4:2:0
Bit depth : 8 bits
Bits/(Pixel*Frame) : 0.034
Stream size : 554 MiB (95%)
Default : Yes
Forced : No

Audio
ID : 2
Format : AAC
Format/Info : Advanced Audio Codec
Format profile : HE-AAC / LC
Format settings : Explicit
Codec ID : A_AAC-2
Duration : 58 min 38 s
Bit rate : 70.4 kb/s
Channel(s) : 2 channels
Channel positions : Front: L R
Sampling rate : 48.0 kHz / 24.0 kHz
Frame rate : 23.438 FPS (1024 SPF)
Compression mode : Lossy
Delay relative to video : 23 ms
Stream size : 29.5 MiB (5%)
Default : Yes
Forced : No

Text
ID : 3
Format : UTF-8
Codec ID : S_TEXT/UTF8
Codec ID/Info : UTF-8 Plain Text
Duration : 58 min 11 s
Bit rate : 48 b/s
Count of elements : 698
Stream size : 20.8 KiB (0%)
Default : Yes
Forced : No

Download

[collapse]
Details and Download | S01E01

General
Format : Matroska
Format version : Version 4 / Version 2
File size : 575 MiB
Duration : 58 min 41 s
Overall bit rate : 1 369 kb/s
Movie name : Gunpowder.S01E01.1080p.HDTV.2CH.x265.HEVC
Encoded date : UTC 2017-11-05 14:10:37
Writing application : mkvmerge v17.0.0 (‘Be Ur Friend’) 32-bit
Writing library : libebml v1.3.5 + libmatroska v1.4.8

Video
ID : 1
Format : HEVC
Format/Info : High Efficiency Video Coding
Format profile : [email protected]@Main
Codec ID : V_MPEGH/ISO/HEVC
Duration : 58 min 41 s
Bit rate : 1 298 kb/s
Width : 1 920 pixels
Height : 800 pixels
Display aspect ratio : 2.40:1
Frame rate mode : Constant
Frame rate : 25.000 FPS
Color space : YUV
Chroma subsampling : 4:2:0
Bit depth : 8 bits
Bits/(Pixel*Frame) : 0.034
Stream size : 545 MiB (95%)
Default : Yes
Forced : No

Audio
ID : 2
Format : AAC
Format/Info : Advanced Audio Codec
Format profile : HE-AAC / LC
Format settings : Explicit
Codec ID : A_AAC-2
Duration : 58 min 41 s
Bit rate : 69.1 kb/s
Channel(s) : 2 channels
Channel positions : Front: L R
Sampling rate : 48.0 kHz / 24.0 kHz
Frame rate : 23.438 FPS (1024 SPF)
Compression mode : Lossy
Delay relative to video : 23 ms
Stream size : 29.0 MiB (5%)
Default : Yes
Forced : No

Text
ID : 3
Format : UTF-8
Codec ID : S_TEXT/UTF8
Codec ID/Info : UTF-8 Plain Text
Duration : 57 min 50 s
Bit rate : 46 b/s
Count of elements : 607
Stream size : 19.6 KiB (0%)
Default : Yes
Forced : No

Download

[collapse]

Details and Download | S01E03

General
Format : Matroska
Format version : Version 4 / Version 2
File size : 461 MiB
Duration : 58 min 46 s
Overall bit rate : 1 097 kb/s
Movie name : Gunpowder.S01E03.720p.WEB-DL
Encoded date : UTC 2017-10-24 19:12:45
Writing application : mkvmerge v17.0.0 (‘Be Ur Friend’) 32-bit
Writing library : libebml v1.3.5 + libmatroska v1.4.8

Video
ID : 2
Format : AVC
Format/Info : Advanced Video Codec
Format profile : [email protected]
Format settings : CABAC / 5 Ref Frames
Format settings, CABAC : Yes
Format settings, RefFrames : 5 frames
Codec ID : V_MPEG4/ISO/AVC
Duration : 58 min 46 s
Bit rate : 1 031 kb/s
Width : 1 280 pixels
Height : 536 pixels
Display aspect ratio : 2.40:1
Frame rate mode : Constant
Frame rate : 25.000 FPS
Color space : YUV
Chroma subsampling : 4:2:0
Bit depth : 8 bits
Scan type : Progressive
Bits/(Pixel*Frame) : 0.060
Stream size : 434 MiB (94%)
Writing library : x264 core 133 r2334 a3ac64b
Encoding settings : cabac=1 / ref=5 / deblock=1:-1:-1 / analyse=0x3:0x113 / me=umh / subme=8 / psy=1 / psy_rd=1.00:0.00 / mixed_ref=1 / me_range=16 / chroma_me=1 / trellis=1 / 8x8dct=1 / cqm=0 / deadzone=21,11 / fast_pskip=1 / chroma_qp_offset=-2 / threads=48 / lookahead_threads=4 / sliced_threads=0 / nr=0 / decimate=1 / interlaced=0 / bluray_compat=0 / constrained_intra=0 / bframes=3 / b_pyramid=2 / b_adapt=2 / b_bias=0 / direct=3 / weightb=1 / open_gop=0 / weightp=2 / keyint=250 / keyint_min=25 / scenecut=40 / intra_refresh=0 / rc_lookahead=50 / rc=2pass / mbtree=1 / bitrate=1031 / ratetol=1.0 / qcomp=0.60 / qpmin=10 / qpmax=51 / qpstep=4 / cplxblur=20.0 / qblur=0.5 / vbv_maxrate=62500 / vbv_bufsize=78125 / nal_hrd=none / ip_ratio=1.40 / aq=1:1.00
Default : Yes
Forced : No

Audio
ID : 1
Format : AAC
Format/Info : Advanced Audio Codec
Format profile : HE-AACv2 / HE-AAC / LC
Codec ID : A_AAC-2
Duration : 58 min 46 s
Bit rate : 64.0 kb/s
Channel(s) : 2 channels / 23 channels / 23 channels
Channel positions : Front: L R / Front: 15, Side: 5, Back: L R, LFE / Front: 15, Side: 5, Back: L R, LFE
Sampling rate : 48.0 kHz / 48.0 kHz / 24.0 kHz
Frame rate : 23.438 FPS (1024 SPF)
Compression mode : Lossy
Delay relative to video : 31 ms
Stream size : 26.9 MiB (6%)
Language : English
Default : Yes
Forced : No

Text
ID : 3
Format : UTF-8
Codec ID : S_TEXT/UTF8
Codec ID/Info : UTF-8 Plain Text
Duration : 57 min 16 s
Bit rate : 35 b/s
Count of elements : 462
Stream size : 14.8 KiB (0%)
Language : English
Default : Yes
Forced : No

Download

[collapse]
Details and Download | S01E02

General
Format : Matroska
Format version : Version 4 / Version 2
File size : 461 MiB
Duration : 58 min 38 s
Overall bit rate : 1 099 kb/s
Movie name : Gunpowder.S01E02.720p.WEB-DL
Encoded date : UTC 2017-10-24 19:12:27
Writing application : mkvmerge v17.0.0 (‘Be Ur Friend’) 32-bit
Writing library : libebml v1.3.5 + libmatroska v1.4.8

Video
ID : 2
Format : AVC
Format/Info : Advanced Video Codec
Format profile : [email protected]
Format settings : CABAC / 5 Ref Frames
Format settings, CABAC : Yes
Format settings, RefFrames : 5 frames
Codec ID : V_MPEG4/ISO/AVC
Duration : 58 min 38 s
Bit rate : 1 033 kb/s
Width : 1 280 pixels
Height : 536 pixels
Display aspect ratio : 2.40:1
Frame rate mode : Constant
Frame rate : 25.000 FPS
Color space : YUV
Chroma subsampling : 4:2:0
Bit depth : 8 bits
Scan type : Progressive
Bits/(Pixel*Frame) : 0.060
Stream size : 433 MiB (94%)
Title : Gunpowder.S01E02.720p.iP.WEB-DL.MkvCage
Writing library : x264 core 133 r2334 a3ac64b
Encoding settings : cabac=1 / ref=5 / deblock=1:-1:-1 / analyse=0x3:0x113 / me=umh / subme=8 / psy=1 / psy_rd=1.00:0.00 / mixed_ref=1 / me_range=16 / chroma_me=1 / trellis=1 / 8x8dct=1 / cqm=0 / deadzone=21,11 / fast_pskip=1 / chroma_qp_offset=-2 / threads=48 / lookahead_threads=4 / sliced_threads=0 / nr=0 / decimate=1 / interlaced=0 / bluray_compat=0 / constrained_intra=0 / bframes=3 / b_pyramid=2 / b_adapt=2 / b_bias=0 / direct=3 / weightb=1 / open_gop=0 / weightp=2 / keyint=250 / keyint_min=25 / scenecut=40 / intra_refresh=0 / rc_lookahead=50 / rc=2pass / mbtree=1 / bitrate=1033 / ratetol=1.0 / qcomp=0.60 / qpmin=10 / qpmax=51 / qpstep=4 / cplxblur=20.0 / qblur=0.5 / vbv_maxrate=62500 / vbv_bufsize=78125 / nal_hrd=none / ip_ratio=1.40 / aq=1:1.00
Default : Yes
Forced : No

Audio
ID : 1
Format : AAC
Format/Info : Advanced Audio Codec
Format profile : HE-AAC / LC
Format settings : Explicit
Codec ID : A_AAC-2
Duration : 58 min 38 s
Bit rate : 64.0 kb/s
Channel(s) : 2 channels
Channel positions : Front: L R
Sampling rate : 48.0 kHz / 24.0 kHz
Frame rate : 23.438 FPS (1024 SPF)
Compression mode : Lossy
Delay relative to video : 31 ms
Stream size : 26.8 MiB (6%)
Language : English
Default : Yes
Forced : No

Text
ID : 3
Format : UTF-8
Codec ID : S_TEXT/UTF8
Codec ID/Info : UTF-8 Plain Text
Duration : 57 min 32 s
Bit rate : 50 b/s
Count of elements : 689
Stream size : 21.1 KiB (0%)
Language : English
Default : Yes
Forced : No

Download

[collapse]
Details and Download | S01E01

General
Format : Matroska
Format version : Version 4 / Version 2
File size : 461 MiB
Duration : 58 min 41 s
Overall bit rate : 1 099 kb/s
Movie name : Gunpowder.S01E01.720p.WEB-DL
Encoded date : UTC 2017-10-24 19:12:04
Writing application : mkvmerge v17.0.0 (‘Be Ur Friend’) 32-bit
Writing library : libebml v1.3.5 + libmatroska v1.4.8

Video
ID : 2
Format : AVC
Format/Info : Advanced Video Codec
Format profile : [email protected]
Format settings : CABAC / 5 Ref Frames
Format settings, CABAC : Yes
Format settings, RefFrames : 5 frames
Codec ID : V_MPEG4/ISO/AVC
Duration : 58 min 41 s
Bit rate : 1 033 kb/s
Width : 1 280 pixels
Height : 536 pixels
Display aspect ratio : 2.40:1
Frame rate mode : Constant
Frame rate : 25.000 FPS
Color space : YUV
Chroma subsampling : 4:2:0
Bit depth : 8 bits
Scan type : Progressive
Bits/(Pixel*Frame) : 0.060
Stream size : 434 MiB (94%)
Writing library : x264 core 133 r2334 a3ac64b
Encoding settings : cabac=1 / ref=5 / deblock=1:-1:-1 / analyse=0x3:0x113 / me=umh / subme=8 / psy=1 / psy_rd=1.00:0.00 / mixed_ref=1 / me_range=16 / chroma_me=1 / trellis=1 / 8x8dct=1 / cqm=0 / deadzone=21,11 / fast_pskip=1 / chroma_qp_offset=-2 / threads=48 / lookahead_threads=4 / sliced_threads=0 / nr=0 / decimate=1 / interlaced=0 / bluray_compat=0 / constrained_intra=0 / bframes=3 / b_pyramid=2 / b_adapt=2 / b_bias=0 / direct=3 / weightb=1 / open_gop=0 / weightp=2 / keyint=250 / keyint_min=25 / scenecut=40 / intra_refresh=0 / rc_lookahead=50 / rc=2pass / mbtree=1 / bitrate=1033 / ratetol=1.0 / qcomp=0.60 / qpmin=10 / qpmax=51 / qpstep=4 / cplxblur=20.0 / qblur=0.5 / vbv_maxrate=62500 / vbv_bufsize=78125 / nal_hrd=none / ip_ratio=1.40 / aq=1:1.00
Default : Yes
Forced : No

Audio
ID : 1
Format : AAC
Format/Info : Advanced Audio Codec
Format profile : HE-AAC / LC
Format settings : Explicit
Codec ID : A_AAC-2
Duration : 58 min 41 s
Bit rate : 64.0 kb/s
Channel(s) : 2 channels
Channel positions : Front: L R
Sampling rate : 48.0 kHz / 24.0 kHz
Frame rate : 23.438 FPS (1024 SPF)
Compression mode : Lossy
Delay relative to video : 31 ms
Stream size : 26.9 MiB (6%)
Language : English
Default : Yes
Forced : No

Text
ID : 3
Format : UTF-8
Codec ID : S_TEXT/UTF8
Codec ID/Info : UTF-8 Plain Text
Duration : 57 min 51 s
Bit rate : 103 b/s
Count of elements : 588
Stream size : 44.0 KiB (0%)
Language : English
Default : Yes
Forced : No

Download

[collapse]

You may also like...

error: nah :p~