Killing Eve

TV-14 | Thriller | TV Mini-Series (2018– )

A security operative hunts for an assassin. Based on the Villanelle novellas by Luke Jennings.

Watch trailer

Details and Download | S01E03

General
Format : Matroska
Format version : Version 4 / Version 2
File size : 208 MiB
Duration : 41 min 5 s
Overall bit rate : 709 kb/s
Movie name : Killing.Eve.S01E03.720p.HDTV.2CH.x265.HEVC
Encoded date : UTC 2018-04-23 20:05:12
Writing application : mkvmerge v22.0.0 (‘At The End Of The World’) 32-bit
Writing library : libebml v1.3.5 + libmatroska v1.4.8

Video
ID : 1
Format : HEVC
Format/Info : High Efficiency Video Coding
Format profile : [email protected]@Main
Codec ID : V_MPEGH/ISO/HEVC
Duration : 41 min 4 s
Bit rate : 648 kb/s
Width : 1 280 pixels
Height : 720 pixels
Display aspect ratio : 16:9
Frame rate mode : Constant
Frame rate : 25.000 FPS
Color space : YUV
Chroma subsampling : 4:2:0
Bit depth : 8 bits
Bits/(Pixel*Frame) : 0.028
Stream size : 190 MiB (91%)
Default : Yes
Forced : No

Audio
ID : 2
Format : AAC
Format/Info : Advanced Audio Codec
Format profile : HE-AAC / LC
Format settings : Explicit
Codec ID : A_AAC-2
Duration : 41 min 4 s
Bit rate : 59.4 kb/s
Channel(s) : 2 channels
Channel positions : Front: L R
Sampling rate : 48.0 kHz / 24.0 kHz
Frame rate : 23.438 FPS (1024 SPF)
Compression mode : Lossy
Delay relative to video : 23 ms
Stream size : 17.5 MiB (8%)
Language : English
Default : Yes
Forced : No

Text
ID : 3
Format : UTF-8
Codec ID : S_TEXT/UTF8
Codec ID/Info : UTF-8 Plain Text
Duration : 41 min 3 s
Bit rate : 66 b/s
Count of elements : 738
Stream size : 19.9 KiB (0%)
Language : English
Default : Yes
Forced : No

Download

Direct download files get automatically deleted after a month or so. Posted on : 04/23/2018

[collapse]
Details and Download | S01E02

General
Format : Matroska
Format version : Version 4 / Version 2
File size : 192 MiB
Duration : 41 min 2 s
Overall bit rate : 653 kb/s
Movie name : Killing.Eve.S01E02.720p.HDTV.2CH.x265.HEVC
Encoded date : UTC 2018-04-16 11:14:34
Writing application : mkvmerge v22.0.0 (‘At The End Of The World’) 32-bit
Writing library : libebml v1.3.5 + libmatroska v1.4.8

Video
ID : 1
Format : HEVC
Format/Info : High Efficiency Video Coding
Format profile : [email protected]@Main
Codec ID : V_MPEGH/ISO/HEVC
Duration : 41 min 2 s
Bit rate : 593 kb/s
Width : 1 280 pixels
Height : 720 pixels
Display aspect ratio : 16:9
Frame rate mode : Constant
Frame rate : 25.000 FPS
Color space : YUV
Chroma subsampling : 4:2:0
Bit depth : 8 bits
Bits/(Pixel*Frame) : 0.026
Stream size : 174 MiB (91%)
Default : Yes
Forced : No

Audio
ID : 2
Format : AAC
Format/Info : Advanced Audio Codec
Format profile : HE-AAC / LC
Format settings : Explicit
Codec ID : A_AAC-2
Duration : 41 min 1 s
Bit rate : 57.8 kb/s
Channel(s) : 2 channels
Channel positions : Front: L R
Sampling rate : 48.0 kHz / 24.0 kHz
Frame rate : 23.438 FPS (1024 SPF)
Compression mode : Lossy
Delay relative to video : 23 ms
Stream size : 17.0 MiB (9%)
Default : Yes
Forced : No

Text
ID : 3
Format : UTF-8
Codec ID : S_TEXT/UTF8
Codec ID/Info : UTF-8 Plain Text
Duration : 40 min 55 s
Bit rate : 69 b/s
Count of elements : 730
Stream size : 21.0 KiB (0%)
Default : Yes
Forced : No

Download

Direct download files get automatically deleted after a month or so. Posted on : 04/16/2018

[collapse]
Details and Download | S01E01

General
Format : Matroska
Format version : Version 4 / Version 2
File size : 195 MiB
Duration : 42 min 47 s
Overall bit rate : 638 kb/s
Movie name : Killing.Eve.S01E01.720p.HDTV.2CH.x265.HEVC
Encoded date : UTC 2018-04-09 11:58:06
Writing application : mkvmerge v22.0.0 (‘At The End Of The World’) 32-bit
Writing library : libebml v1.3.5 + libmatroska v1.4.8

Video
ID : 1
Format : HEVC
Format/Info : High Efficiency Video Coding
Format profile : [email protected]@Main
Codec ID : V_MPEGH/ISO/HEVC
Duration : 41 min 29 s
Bit rate : 597 kb/s
Width : 1 280 pixels
Height : 720 pixels
Display aspect ratio : 16:9
Frame rate mode : Constant
Frame rate : 25.000 FPS
Color space : YUV
Chroma subsampling : 4:2:0
Bit depth : 8 bits
Bits/(Pixel*Frame) : 0.026
Stream size : 177 MiB (91%)
Default : Yes
Forced : No
Color range : Limited
Color primaries : BT.709
Transfer characteristics : BT.709
Matrix coefficients : BT.709

Audio
ID : 2
Format : AAC
Format/Info : Advanced Audio Codec
Format profile : HE-AAC / LC
Format settings : Explicit
Codec ID : A_AAC-2
Duration : 41 min 28 s
Bit rate : 59.4 kb/s
Channel(s) : 2 channels
Channel positions : Front: L R
Sampling rate : 48.0 kHz / 24.0 kHz
Frame rate : 23.438 FPS (1024 SPF)
Compression mode : Lossy
Delay relative to video : 23 ms
Stream size : 17.6 MiB (9%)
Default : Yes
Forced : No

Text
ID : 3
Format : UTF-8
Codec ID : S_TEXT/UTF8
Codec ID/Info : UTF-8 Plain Text
Duration : 40 min 48 s
Bit rate : 54 b/s
Count of elements : 579
Stream size : 16.3 KiB (0%)
Default : Yes
Forced : No

Download

Direct download files get automatically deleted after a month or so. Posted on : 04/09/2018

[collapse]

You may also like...

error: nah :p~