Frozen (2013)

PG | 1h 42min | Animation, Adventure, Comedy | 27 November 2013 (USA)

When the newly crowned Queen Elsa accidentally uses her power to turn things into ice to curse her home in infinite winter, her sister Anna teams up with a mountain man, his playful reindeer, and a snowman to change the weather condition.

Watch trailer

Media information

General
Format : Matroska
Format version : Version 4
File size : 1.63 GiB
Duration : 1 h 42 min
Overall bit rate : 2 285 kb/s
Movie name : Frozen.2013.1080p.10bit.BluRay.8CH.x265.HEVC
Encoded date : UTC 2019-12-28 23:08:50
Writing application : mkvmerge v41.0.0 (‘Smarra’) 32-bit
Writing library : libebml v1.3.9 + libmatroska v1.5.2

Video
ID : 1
Format : HEVC
Format/Info : High Efficiency Video Coding
Format profile : Main [email protected]@Main
Codec ID : V_MPEGH/ISO/HEVC
Duration : 1 h 42 min
Bit rate : 1 979 kb/s
Width : 1 920 pixels
Height : 856 pixels
Display aspect ratio : 2.25:1
Frame rate mode : Constant
Frame rate : 23.976 (24000/1001) FPS
Color space : YUV
Chroma subsampling : 4:2:0
Bit depth : 10 bits
Bits/(Pixel*Frame) : 0.050
Stream size : 1.41 GiB (87%)
Default : Yes
Forced : No

Audio
ID : 2
Format : AAC LC SBR
Commercial name : HE-AAC
Format settings : Explicit
Codec ID : A_AAC-2
Duration : 1 h 42 min
Bit rate : 303 kb/s
Channel(s) : 8 channels
Channel layout : C L R Ls Rs Lb Rb LFE
Sampling rate : 48.0 kHz
Frame rate : 23.438 FPS (2048 SPF)
Compression mode : Lossy
Delay relative to video : 31 ms
Stream size : 222 MiB (13%)
Language : English
Default : Yes
Forced : No

Text #1
ID : 3
Format : UTF-8
Codec ID : S_TEXT/UTF8
Codec ID/Info : UTF-8 Plain Text
Duration : 1 h 40 min
Bit rate : 57 b/s
Count of elements : 1641
Stream size : 42.3 KiB (0%)
Language : English
Default : Yes
Forced : No

Text #2
ID : 4
Format : UTF-8
Codec ID : S_TEXT/UTF8
Codec ID/Info : UTF-8 Plain Text
Duration : 1 h 41 min
Bit rate : 67 b/s
Count of elements : 1982
Stream size : 50.4 KiB (0%)
Language : English
Default : No
Forced : No

[collapse]
Download Link(s)

Download

Direct download files get automatically deleted after a month or so. Posted on : 12/29/2019

[collapse]
Magnet Link

Magnet

Frozen.2013.1080p.Atmos.DTS-HD.MA 7.1-19.3 GB

[collapse]

Media information

General
Format : Matroska
Format version : Version 4
File size : 880 MiB
Duration : 1 h 42 min
Overall bit rate : 1 204 kb/s
Movie name : Frozen.2013.720p.10bit.BluRay.6CH.x265.HEVC
Encoded date : UTC 2019-12-28 23:07:00
Writing application : mkvmerge v41.0.0 (‘Smarra’) 32-bit
Writing library : libebml v1.3.9 + libmatroska v1.5.2

Video
ID : 1
Format : HEVC
Format/Info : High Efficiency Video Coding
Format profile : Main [email protected]@Main
Codec ID : V_MPEGH/ISO/HEVC
Duration : 1 h 42 min
Bit rate : 978 kb/s
Width : 1 280 pixels
Height : 568 pixels
Display aspect ratio : 2.25:1
Frame rate mode : Constant
Frame rate : 23.976 (24000/1001) FPS
Color space : YUV
Chroma subsampling : 4:2:0
Bit depth : 10 bits
Bits/(Pixel*Frame) : 0.056
Stream size : 715 MiB (81%)
Default : Yes
Forced : No

Audio
ID : 2
Format : AAC LC SBR
Commercial name : HE-AAC
Format settings : Explicit
Codec ID : A_AAC-2
Duration : 1 h 42 min
Bit rate : 224 kb/s
Channel(s) : 6 channels
Channel layout : C L R Ls Rs LFE
Sampling rate : 48.0 kHz
Frame rate : 23.438 FPS (2048 SPF)
Compression mode : Lossy
Delay relative to video : 31 ms
Stream size : 164 MiB (19%)
Language : English
Default : Yes
Forced : No

Text #1
ID : 3
Format : UTF-8
Codec ID : S_TEXT/UTF8
Codec ID/Info : UTF-8 Plain Text
Duration : 1 h 40 min
Bit rate : 57 b/s
Count of elements : 1641
Stream size : 42.3 KiB (0%)
Language : English
Default : Yes
Forced : No

Text #2
ID : 4
Format : UTF-8
Codec ID : S_TEXT/UTF8
Codec ID/Info : UTF-8 Plain Text
Duration : 1 h 41 min
Bit rate : 67 b/s
Count of elements : 1982
Stream size : 50.4 KiB (0%)
Language : English
Default : No
Forced : No

[collapse]
Download Link(s)

Download

Direct download files get automatically deleted after a month or so. Posted on : 12/29/2019

[collapse]
Magnet Link

Magnet

Frozen.2013.1080p.Atmos.DTS-HD.MA 7.1-19.3 GB

[collapse]

You may also like...

error: nah :p~