Minions Holiday Special (2020)

TV-PG | 21min | Animation, Short, Comedy | TV Special 27 November 2020

Illumination presents four new mini-movie escapades along with special guest appearances from some of Illumination’s beloved characters from their “The Secret Life of Pets” and “Sing” franchises.

Watch trailer

Media information

General
Format : Matroska
Format version : Version 4
File size : 280 MiB
Duration : 21 min 26 s
Overall bit rate : 1 826 kb/s
Movie name : Illumination.Presents.Minions.Holiday.Special.2020.1080p.10bit.WEBRip.2CH.x265.HEVC

Video
ID : 1
Format : HEVC
Format/Info : High Efficiency Video Coding
Format profile : Main [email protected]@Main
Codec ID : V_MPEGH/ISO/HEVC
Duration : 21 min 26 s
Bit rate : 1 601 kb/s
Width : 1 920 pixels
Height : 1 080 pixels
Display aspect ratio : 16:9
Frame rate mode : Constant
Frame rate : 29.970 (30000/1001) FPS
Color space : YUV
Chroma subsampling : 4:2:0
Bit depth : 10 bits
Bits/(Pixel*Frame) : 0.026
Stream size : 245 MiB (88%)
Default : Yes
Forced : No
Color range : Limited
Color primaries : BT.709
Transfer characteristics : BT.709
Matrix coefficients : BT.709

Audio
ID : 2
Format : AAC LC
Codec ID : A_AAC-2
Duration : 21 min 26 s
Bit rate : 223 kb/s
Channel(s) : 2 channels
Channel layout : L R
Sampling rate : 44.1 kHz
Frame rate : 43.066 FPS (1024 SPF)
Compression mode : Lossy
Delay relative to video : -23 ms
Stream size : 34.2 MiB (12%)
Language : English
Default : Yes
Forced : No

Text
ID : 3
Format : UTF-8
Codec ID : S_TEXT/UTF8
Codec ID/Info : UTF-8 Plain Text
Duration : 21 min 11 s
Bit rate : 68 b/s
Count of elements : 824
Stream size : 10.6 KiB (0%)
Language : English
Default : Yes
Forced : No

[collapse]
Download Link(s)

Download

Direct download files get automatically deleted after a month or so. Posted on : 12/01/2020

[collapse]
Magnet Link

Magnet

Illumination.Presents.Minions.Holiday.Special.2020.1080p.WEBRip.x264-418.84 MB

[collapse]

Media information

General
Format : Matroska
Format version : Version 4
File size : 150 MiB
Duration : 21 min 26 s
Overall bit rate : 982 kb/s
Movie name : Illumination.Presents.Minions.Holiday.Special.2020.720p.10bit.WEBRip.2CH.x265.HEVC

Video
ID : 1
Format : HEVC
Format/Info : High Efficiency Video Coding
Format profile : Main [email protected]@Main
Codec ID : V_MPEGH/ISO/HEVC
Duration : 21 min 26 s
Bit rate : 820 kb/s
Width : 1 280 pixels
Height : 720 pixels
Display aspect ratio : 16:9
Frame rate mode : Constant
Frame rate : 29.970 (30000/1001) FPS
Color space : YUV
Chroma subsampling : 4:2:0
Bit depth : 10 bits
Bits/(Pixel*Frame) : 0.030
Stream size : 126 MiB (83%)
Default : Yes
Forced : No
Color range : Limited
Color primaries : BT.709
Transfer characteristics : BT.709
Matrix coefficients : BT.709

Audio
ID : 2
Format : AAC LC
Codec ID : A_AAC-2
Duration : 21 min 26 s
Bit rate : 159 kb/s
Channel(s) : 2 channels
Channel layout : L R
Sampling rate : 44.1 kHz
Frame rate : 43.066 FPS (1024 SPF)
Compression mode : Lossy
Delay relative to video : -23 ms
Stream size : 24.4 MiB (16%)
Language : English
Default : Yes
Forced : No

Text
ID : 3
Format : UTF-8
Codec ID : S_TEXT/UTF8
Codec ID/Info : UTF-8 Plain Text
Duration : 21 min 11 s
Bit rate : 68 b/s
Count of elements : 824
Stream size : 10.6 KiB (0%)
Language : English
Default : Yes
Forced : No

[collapse]
Download Link(s)

Download

Direct download files get automatically deleted after a month or so. Posted on : 12/01/2020

[collapse]
Magnet Link

Magnet

Illumination.Presents.Minions.Holiday.Special.2020.1080p.WEBRip.x264-418.84 MB

[collapse]

You may also like...

error: nah :p~