Monster High: 13 Wishes (2013)

TV-Y7 | 1h 13min | Animation | TV Movie 8 October 2013

It’s a new school year at Monster High! Howleen’s dream of popularity becomes a possibility when she stumbles upon a genie who grants her not 3, but 13 wishes!

Watch trailer

Media information

General
Format : Matroska
Format version : Version 4
File size : 544 MiB
Duration : 1 h 13 min
Overall bit rate : 1 038 kb/s
Movie name : Monster.High.13.Wishes.2013.720p.BluRay.2CH.x265.HEVC
Encoded date : UTC 2019-12-13 15:30:26
Writing application : mkvmerge v41.0.0 (‘Smarra’) 32-bit
Writing library : libebml v1.3.9 + libmatroska v1.5.2

Video
ID : 1
Format : HEVC
Format/Info : High Efficiency Video Coding
Format profile : [email protected]@Main
Codec ID : V_MPEGH/ISO/HEVC
Duration : 1 h 13 min
Bit rate : 955 kb/s
Width : 1 280 pixels
Height : 720 pixels
Display aspect ratio : 16:9
Frame rate mode : Constant
Frame rate : 23.976 (24000/1001) FPS
Color space : YUV
Chroma subsampling : 4:2:0
Bit depth : 8 bits
Bits/(Pixel*Frame) : 0.043
Stream size : 501 MiB (92%)
Default : Yes
Forced : No
Color range : Limited
Color primaries : BT.709
Transfer characteristics : BT.709
Matrix coefficients : BT.709

Audio
ID : 2
Format : AAC LC
Codec ID : A_AAC-2
Duration : 1 h 13 min
Bit rate : 80.4 kb/s
Channel(s) : 2 channels
Channel layout : L R
Sampling rate : 48.0 kHz
Frame rate : 46.875 FPS (1024 SPF)
Compression mode : Lossy
Delay relative to video : -21 ms
Stream size : 42.2 MiB (8%)
Title : Stereo
Language : English
Default : Yes
Forced : No

Text
ID : 3
Format : ASS
Codec ID : S_TEXT/ASS
Duration : 1 h 11 min
Bit rate : 113 b/s
Count of elements : 1057
Compression mode : Lossless
Stream size : 60.0 KiB (0%)
Language : English
Default : Yes
Forced : Yes

[collapse]
Download Link(s)

Download

Direct download files get automatically deleted after a month or so. Posted on : 12/13/2019

[collapse]
Magnet Link

Magnet

Monster.High.13.Wishes.2013.1080p.BluRay.x264.DTS-FGT-6.67 GB

[collapse]

You may also like...

error: nah :p~