Pets United (2019)

TV-Y7 | 1h 29min | Animation, Adventure, Comedy | 11 September 2020 (USA)

A group of spoilt, selfish pets led by glamour cat Belle are stranded in their luxury hangout ‘Pampered Pets,’ when the machines that run Robo City, the hypermodern metropolis that they live in, go wild and take over.

Watch trailer

Media information

General
Format : Matroska
Format version : Version 4
File size : 1.18 GiB
Duration : 1 h 32 min
Overall bit rate : 1 825 kb/s
Movie name : Pets.United.2020.1080p.10bit.WEB-DL.6CH.x265.HEVC

Video
ID : 1
Format : HEVC
Format/Info : High Efficiency Video Coding
Format profile : Main [email protected]@Main
Codec ID : V_MPEGH/ISO/HEVC
Duration : 1 h 32 min
Bit rate : 1 601 kb/s
Width : 1 920 pixels
Height : 1 080 pixels
Display aspect ratio : 1.85:1
Frame rate mode : Constant
Frame rate : 24.000 FPS
Color space : YUV
Chroma subsampling : 4:2:0
Bit depth : 10 bits
Bits/(Pixel*Frame) : 0.032
Stream size : 1.04 GiB (88%)
Default : Yes
Forced : No
Color range : Limited
Color primaries : BT.709
Transfer characteristics : BT.709
Matrix coefficients : BT.709

Audio
ID : 2
Format : AAC LC
Codec ID : A_AAC-2
Duration : 1 h 32 min
Bit rate : 221 kb/s
Channel(s) : 6 channels
Channel layout : C L R Ls Rs LFE
Sampling rate : 48.0 kHz
Frame rate : 46.875 FPS (1024 SPF)
Compression mode : Lossy
Delay relative to video : -21 ms
Stream size : 147 MiB (12%)
Language : English
Default : Yes
Forced : No

Text
ID : 3
Format : UTF-8
Codec ID : S_TEXT/UTF8
Codec ID/Info : UTF-8 Plain Text
Duration : 1 h 27 min
Bit rate : 54 b/s
Count of elements : 1540
Stream size : 34.5 KiB (0%)
Language : English
Default : Yes
Forced : No

[collapse]
Download Link(s)

Download

Direct download files get automatically deleted after a month or so. Posted on : 09/15/2020

[collapse]
Magnet Link

Magnet

Pets.United.2020.1080p.NF.WEBRip.DDP5.1.x264-pawel2006-4.14 GB

[collapse]

Media information

General
Format : Matroska
Format version : Version 4
File size : 581 MiB
Duration : 1 h 32 min
Overall bit rate : 875 kb/s
Movie name : Pets.United.2020.720p.10bit.WEB-DL.6CH.x265.HEVC

Video
ID : 1
Format : HEVC
Format/Info : High Efficiency Video Coding
Format profile : Main [email protected]@Main
Codec ID : V_MPEGH/ISO/HEVC
Duration : 1 h 32 min
Bit rate : 651 kb/s
Width : 1 280 pixels
Height : 720 pixels
Display aspect ratio : 1.85:1
Frame rate mode : Constant
Frame rate : 24.000 FPS
Color space : YUV
Chroma subsampling : 4:2:0
Bit depth : 10 bits
Bits/(Pixel*Frame) : 0.029
Stream size : 433 MiB (74%)
Default : Yes
Forced : No
Color range : Limited
Color primaries : BT.709
Transfer characteristics : BT.709
Matrix coefficients : BT.709

Audio
ID : 2
Format : AAC LC
Codec ID : A_AAC-2
Duration : 1 h 32 min
Bit rate : 221 kb/s
Channel(s) : 6 channels
Channel layout : C L R Ls Rs LFE
Sampling rate : 48.0 kHz
Frame rate : 46.875 FPS (1024 SPF)
Compression mode : Lossy
Delay relative to video : -21 ms
Stream size : 147 MiB (25%)
Language : English
Default : Yes
Forced : No

Text
ID : 3
Format : UTF-8
Codec ID : S_TEXT/UTF8
Codec ID/Info : UTF-8 Plain Text
Duration : 1 h 27 min
Bit rate : 54 b/s
Count of elements : 1540
Stream size : 34.5 KiB (0%)
Language : English
Default : Yes
Forced : No

[collapse]
Download Link(s)

Download

Direct download files get automatically deleted after a month or so. Posted on : 09/15/2020

[collapse]
Magnet Link

Magnet

Pets.United.2020.1080p.NF.WEBRip.DDP5.1.x264-pawel2006-4.14 GB

[collapse]

You may also like...

error: nah :p~