Playmobil: The Movie (2019)

PG | 1h 39min | Animation, Adventure, Comedy | 6 December 2019 (USA)

Animated feature film inspired by the Playmobil brand toys.

Watch trailer

Media information

General
Format : Matroska
Format version : Version 4
File size : 824 MiB
Duration : 1 h 39 min
Overall bit rate : 1 162 kb/s
Movie name : Playmobil.the.Movie.2019.720p.10bit.BluRay.6CH.x265.HEVC
Encoded date : UTC 2019-12-06 19:20:16
Writing application : mkvmerge v40.0.0 (‘Old Town Road + Pony’) 32-bit
Writing library : libebml v1.3.9 + libmatroska v1.5.2

Video
ID : 1
Format : HEVC
Format/Info : High Efficiency Video Coding
Format profile : Main [email protected]@Main
Codec ID : V_MPEGH/ISO/HEVC
Duration : 1 h 39 min
Bit rate : 955 kb/s
Width : 1 280 pixels
Height : 536 pixels
Display aspect ratio : 2.40:1
Frame rate mode : Constant
Frame rate : 24.000 FPS
Color space : YUV
Chroma subsampling : 4:2:0
Bit depth : 10 bits
Bits/(Pixel*Frame) : 0.058
Stream size : 677 MiB (82%)
Default : Yes
Forced : No

Audio
ID : 2
Format : AAC LC SBR
Commercial name : HE-AAC
Format settings : Explicit
Codec ID : A_AAC-2
Duration : 1 h 39 min
Bit rate : 205 kb/s
Channel(s) : 6 channels
Channel layout : C L R Ls Rs LFE
Sampling rate : 48.0 kHz
Frame rate : 23.438 FPS (2048 SPF)
Compression mode : Lossy
Delay relative to video : 23 ms
Stream size : 145 MiB (18%)
Language : English
Default : Yes
Forced : No

Text
ID : 3
Format : UTF-8
Codec ID : S_TEXT/UTF8
Codec ID/Info : UTF-8 Plain Text
Duration : 1 h 38 min
Bit rate : 84 b/s
Count of elements : 1913
Stream size : 61.6 KiB (0%)
Language : English
Default : Yes
Forced : No

[collapse]
Download Link(s)

Download

Direct download files get automatically deleted after a month or so. Posted on : 12/07/2019

[collapse]
Magnet Link

Magnet

Playmobil.the.Movie.2019.1080p.BluRay.REMUX.AVC.DTS-HD.MA.5.1-FGT-18.56 GB

[collapse]

You may also like...

error: nah :p~