Resident Evil: Degeneration (2008)

Baiohaz√Ędo: Dijener√™shon (original title)|R | 1h 38min | Animation, Action, Horror | 18 October 2008 (Japan)

Leon S. Kennedy and Claire Redfield must battle a rogue warrior seeking revenge after unleashing the deadly G-Virus, whilst a mutated monster goes on a rampage.

Watch trailer

Media information

General
Format : Matroska
Format version : Version 4 / Version 2
File size : 844 MiB
Duration : 1 h 36 min
Overall bit rate : 1 228 kb/s
Movie name : Resident.Evil.Degeneration.2008.720p.10bit.BluRay.6CH.x265.HEVC
Encoded date : UTC 2018-01-24 16:21:18
Writing application : mkvmerge v20.0.0 (‘I Am The Sun’) 32-bit
Writing library : libebml v1.3.5 + libmatroska v1.4.8

Video
ID : 1
Format : HEVC
Format/Info : High Efficiency Video Coding
Format profile : Main [email protected]@Main
Codec ID : V_MPEGH/ISO/HEVC
Duration : 1 h 36 min
Bit rate : 1 021 kb/s
Width : 1 280 pixels
Height : 720 pixels
Display aspect ratio : 16:9
Frame rate mode : Constant
Frame rate : 23.976 (24000/1001) FPS
Color space : YUV
Chroma subsampling : 4:2:0
Bit depth : 10 bits
Bits/(Pixel*Frame) : 0.046
Stream size : 702 MiB (83%)
Default : Yes
Forced : No

Audio
ID : 2
Format : AAC
Format/Info : Advanced Audio Codec
Format profile : HE-AACv2 / HE-AAC / LC
Format settings : Implicit / Explicit
Codec ID : A_AAC-2
Duration : 1 h 36 min
Bit rate : 205 kb/s
Channel(s) : 2 channels / 6 channels / 6 channels
Channel positions : Front: L R / Front: L C R, Side: L R, LFE / Front: L C R, Side: L R, LFE
Sampling rate : 48.0 kHz / 48.0 kHz / 24.0 kHz
Frame rate : 23.438 FPS (1024 SPF)
Compression mode : Lossy
Delay relative to video : 23 ms
Stream size : 141 MiB (17%)
Default : Yes
Forced : No

Text #1
ID : 3
Format : UTF-8
Codec ID : S_TEXT/UTF8
Codec ID/Info : UTF-8 Plain Text
Duration : 1 h 32 min
Bit rate : 45 b/s
Count of elements : 864
Stream size : 30.8 KiB (0%)
Language : English
Default : Yes
Forced : No

Text #2
ID : 4
Format : UTF-8
Codec ID : S_TEXT/UTF8
Codec ID/Info : UTF-8 Plain Text
Duration : 1 h 33 min
Bit rate : 74 b/s
Count of elements : 855
Stream size : 51.1 KiB (0%)
Language : Russian
Default : No
Forced : No

[collapse]
Download Link(s)

Download

Direct download files get automatically deleted after a month or so. Posted on : 01/24/2018

[collapse]
Magnet Link

Magnet

Source : Resident.Evil.Degeneration.2008.1080p.BluRay.x264-JBL-4.07 GB

[collapse]

You may also like...

error: nah :p~