A Christmas Carol (2009)

PG | 1h 36min | Animation, Drama, Family | 6 November 2009 (USA)

An animated retelling of Charles Dickens’ classic novel about a Victorian-era miser taken on a journey of self-redemption, courtesy of several mysterious Christmas apparitions.

Watch trailer

Media information

General
Format : Matroska
Format version : Version 4
File size : 835 MiB
Duration : 1 h 35 min
Overall bit rate : 1 218 kb/s
Movie name : A.Christmas.Carol.2009.1080p.BluRay.2CH.x265.HEVC
Encoded date : UTC 2018-12-04 21:26:09
Writing application : mkvmerge v29.0.0 (‘Like It Or Not’) 32-bit
Writing library : libebml v1.3.6 + libmatroska v1.4.9

Video
ID : 1
Format : HEVC
Format/Info : High Efficiency Video Coding
Format profile : [email protected]@Main
Codec ID : V_MPEGH/ISO/HEVC
Duration : 1 h 35 min
Bit rate : 1 057 kb/s
Width : 1 920 pixels
Height : 800 pixels
Display aspect ratio : 2.40:1
Frame rate mode : Constant
Frame rate : 23.976 (24000/1001) FPS
Color space : YUV
Chroma subsampling : 4:2:0
Bit depth : 8 bits
Bits/(Pixel*Frame) : 0.029
Stream size : 724 MiB (87%)
Default : Yes
Forced : No
Color range : Limited
Color primaries : BT.709
Transfer characteristics : BT.709
Matrix coefficients : BT.709

Audio
ID : 2
Format : Opus
Codec ID : A_OPUS
Duration : 1 h 35 min
Bit rate : 158 kb/s
Channel(s) : 2 channels
Channel layout : L R
Sampling rate : 48.0 kHz
Frame rate : 50.000 FPS (960 SPF)
Compression mode : Lossy
Delay relative to video : -7 ms
Stream size : 109 MiB (13%)
Title : Stereo
Language : English
Default : Yes
Forced : No

Text
ID : 3
Format : ASS
Codec ID : S_TEXT/ASS
Duration : 1 h 28 min
Bit rate : 62 b/s
Count of elements : 717
Compression mode : Lossless
Stream size : 40.1 KiB (0%)
Language : English
Default : Yes
Forced : Yes

[collapse]
Download Link(s)

Download

[RE-UP]-Direct download files get automatically deleted after a month or so. Posted on : 12/05/2018

[collapse]
Magnet Link

Magnet

A.Christmas.Carol.2009.1080p.BluRay.x264.DTS-FGT-7.93 GB

[collapse]

Release Notes

Been doing some tests on a new (to me) audio codec, OPUS. The results seem pretty impressive. This file took 15 hours of encoding and from almost 8GB it came down to 835MB.

Whatever the case, enjoy 🙂

[collapse]

 

You may also like...

error: nah :p~