Asterix: The Secret of the Magic Potion (2018)

Astérix: Le secret de la potion magique (original title)|1h 25min | Animation, Adventure, Comedy | 5 December 2018 (France)

Following a fall during mistletoe picking, Druid Panoramix decides that it is time to secure the future of the village. Accompanied by Astérix and Obelix, he undertakes to travel the Gallic world in search of a talented young druid to transmit the Secret of the Magic Potion.

Watch trailer

Media information

General
Format : Matroska
Format version : Version 4
File size : 800 MiB
Duration : 1 h 24 min
Overall bit rate : 1 317 kb/s
Movie name : Asterix.Le.secret.de.la.potion.magique.2018.720p.BluRay.2CH.x264.AVC
Encoded date : UTC 2019-04-14 12:55:21
Writing application : mkvmerge v33.0.0 (‘A Little Bit of Madness’) 32-bit
Writing library : libebml v1.3.7 + libmatroska v1.5.0

Video
ID : 1
Format : AVC
Format/Info : Advanced Video Codec
Format profile : [email protected]
Format settings : CABAC / 8 Ref Frames
Format settings, CABAC : Yes
Format settings, RefFrames : 8 frames
Codec ID : V_MPEG4/ISO/AVC
Duration : 1 h 24 min
Bit rate : 1 217 kb/s
Width : 1 280 pixels
Height : 536 pixels
Display aspect ratio : 2.40:1
Frame rate mode : Constant
Frame rate : 24.000 FPS
Color space : YUV
Chroma subsampling : 4:2:0
Bit depth : 8 bits
Scan type : Progressive
Bits/(Pixel*Frame) : 0.074
Stream size : 738 MiB (92%)
Default : Yes
Forced : No

Audio
ID : 2
Format : AAC LC SBR
Commercial name : HE-AAC
Format settings : Explicit
Codec ID : A_AAC-2
Duration : 1 h 24 min
Bit rate : 100.0 kb/s
Channel(s) : 2 channels
Channel layout : L R
Sampling rate : 48.0 kHz
Frame rate : 23.438 FPS (2048 SPF)
Compression mode : Lossy
Delay relative to video : 43 ms
Stream size : 60.7 MiB (8%)
Language : French
Default : Yes
Forced : No

Text
ID : 3
Format : UTF-8
Codec ID : S_TEXT/UTF8
Codec ID/Info : UTF-8 Plain Text
Duration : 1 h 16 min
Bit rate : 58 b/s
Count of elements : 765
Stream size : 32.4 KiB (0%)
Language : English
Default : Yes
Forced : No

[collapse]
Download Link(s)

Download

Direct download files get automatically deleted after a month or so. Posted on : 04/14/2019

[collapse]
Magnet Link

Magnet

Asterix:.The.Secret.of.the.Magic.Potion.2018.720p.BRRip-800 MB

[collapse]

You may also like...

error: nah :p~