Dragon Ball Super: Broly (2018)

Doragon bôru chô: Burorî (original title)|PG | 1h 40min | Animation, Action, Fantasy | 16 January 2019 (USA)

Goku and Vegeta encounter Broly, a Saiyan warrior unlike any fighter they’ve faced before.

Watch trailer

Media information

General
Format : Matroska
Format version : Version 4
File size : 801 MiB
Duration : 1 h 40 min
Overall bit rate : 1 120 kb/s
Movie name : Dragon.Ball.Super.Broly.2018.720p.WEB-DL.2CH.x264.AVC
Encoded date : UTC 2019-02-12 19:34:39
Writing application : mkvmerge v31.0.0 (‘Dolores In A Shoestand’) 32-bit
Writing library : libebml v1.3.6 + libmatroska v1.4.9

Video
ID : 2
Format : AVC
Format/Info : Advanced Video Codec
Format profile : [email protected]
Format settings : CABAC / 5 Ref Frames
Format settings, CABAC : Yes
Format settings, RefFrames : 5 frames
Codec ID : V_MPEG4/ISO/AVC
Duration : 1 h 40 min
Bit rate : 1 054 kb/s
Width : 1 280 pixels
Height : 720 pixels
Display aspect ratio : 16:9
Frame rate mode : Constant
Frame rate : 23.976 (24000/1001) FPS
Color space : YUV
Chroma subsampling : 4:2:0
Bit depth : 8 bits
Scan type : Progressive
Bits/(Pixel*Frame) : 0.048
Stream size : 754 MiB (94%)
Default : Yes
Forced : No

Audio
ID : 3
Format : AAC LC SBR
Commercial name : HE-AAC
Format settings : Explicit
Codec ID : A_AAC-2
Duration : 1 h 40 min
Bit rate : 64.0 kb/s
Channel(s) : 2 channels
Channel layout : L R
Sampling rate : 48.0 kHz
Frame rate : 23.438 FPS (2048 SPF)
Compression mode : Lossy
Delay relative to video : 43 ms
Stream size : 45.8 MiB (6%)
Language : Japanese
Default : Yes
Forced : No

Text
ID : 1
Format : UTF-8
Codec ID : S_TEXT/UTF8
Codec ID/Info : UTF-8 Plain Text
Duration : 1 h 35 min
Bit rate : 49 b/s
Count of elements : 995
Stream size : 34.4 KiB (0%)
Language : English
Default : Yes
Forced : No

[collapse]
Download Link(s)

Download

Direct download files get automatically deleted after a month or so. Posted on : 02/12/2019

[collapse]
Magnet Link

Magnet

Dragon.Ball.Super.Broly.2018.JAPANESE.1080p.AMZN.WEBRip.DDP5.1.x264-U3Web-4.81 GB

[collapse]

You may also like...

error: nah :p~