Godzilla: City on the Edge of Battle (2018)

Gojira: kessen kidô zôshoku toshi (original title)|1h 41min | Animation, Action, Sci-Fi | 18 July 2018 (USA)

Humanity’s desperate battle to reclaim the Earth from Godzilla continues. The key to defeating the King of the Monsters may be Mechagodzilla, a robotic weapon thought to have been lost nearly 20,000 years ago.

Watch trailer

Media information

General
Format : Matroska
Format version : Version 4
File size : 553 MiB
Duration : 1 h 40 min
Overall bit rate : 767 kb/s
Movie name : Godzilla.City.on.the.Edge.of.Battle.2018.DUAL-AUDIO.JPN-ENG.720p.10bit.WEBRip.6CH.x265.HEVC
Encoded date : UTC 2019-02-20 15:13:36
Writing application : mkvmerge v31.0.0 (‘Dolores In A Shoestand’) 32-bit
Writing library : libebml v1.3.6 + libmatroska v1.4.9

Video
ID : 1
Format : HEVC
Format/Info : High Efficiency Video Coding
Format profile : Main [email protected]@Main
Codec ID : V_MPEGH/ISO/HEVC
Duration : 1 h 40 min
Bit rate : 356 kb/s
Width : 1 280 pixels
Height : 720 pixels
Display aspect ratio : 16:9
Frame rate mode : Constant
Frame rate : 24.000 FPS
Color space : YUV
Chroma subsampling : 4:2:0
Bit depth : 10 bits
Bits/(Pixel*Frame) : 0.016
Stream size : 257 MiB (46%)
Default : Yes
Forced : No

Audio #1
ID : 2
Format : AAC LC SBR
Commercial name : HE-AAC
Format settings : Explicit
Codec ID : A_AAC-2
Duration : 1 h 40 min
Bit rate : 203 kb/s
Channel(s) : 6 channels
Channel layout : C L R Ls Rs LFE
Sampling rate : 48.0 kHz
Frame rate : 23.438 FPS (2048 SPF)
Compression mode : Lossy
Delay relative to video : 23 ms
Stream size : 147 MiB (27%)
Language : Japanese
Default : Yes
Forced : No

Audio #2
ID : 3
Format : AAC LC SBR
Commercial name : HE-AAC
Format settings : Explicit
Codec ID : A_AAC-2
Duration : 1 h 40 min
Bit rate : 202 kb/s
Channel(s) : 6 channels
Channel layout : C L R Ls Rs LFE
Sampling rate : 48.0 kHz
Frame rate : 23.438 FPS (2048 SPF)
Compression mode : Lossy
Delay relative to video : 23 ms
Stream size : 146 MiB (26%)
Language : English
Default : No
Forced : No

Text #1
ID : 4
Format : UTF-8
Codec ID : S_TEXT/UTF8
Codec ID/Info : UTF-8 Plain Text
Duration : 1 h 39 min
Bit rate : 70 b/s
Count of elements : 1351
Stream size : 51.8 KiB (0%)
Language : English
Default : Yes
Forced : No

Text #2
ID : 5
Format : UTF-8
Codec ID : S_TEXT/UTF8
Codec ID/Info : UTF-8 Plain Text
Duration : 1 h 40 min
Bit rate : 118 b/s
Count of elements : 1354
Stream size : 86.8 KiB (0%)
Language : Arabic
Default : No
Forced : No

Text #3
ID : 6
Format : UTF-8
Codec ID : S_TEXT/UTF8
Codec ID/Info : UTF-8 Plain Text
Duration : 1 h 40 min
Bit rate : 64 b/s
Count of elements : 1331
Stream size : 47.4 KiB (0%)
Language : Danish
Default : No
Forced : No

Text #4
ID : 7
Format : UTF-8
Codec ID : S_TEXT/UTF8
Codec ID/Info : UTF-8 Plain Text
Duration : 1 h 40 min
Bit rate : 68 b/s
Count of elements : 1342
Stream size : 50.4 KiB (0%)
Language : German
Default : No
Forced : No

Text #5
ID : 8
Format : UTF-8
Codec ID : S_TEXT/UTF8
Codec ID/Info : UTF-8 Plain Text
Duration : 1 h 40 min
Bit rate : 118 b/s
Count of elements : 1361
Stream size : 86.8 KiB (0%)
Language : Greek
Default : No
Forced : No

Text #6
ID : 9
Format : UTF-8
Codec ID : S_TEXT/UTF8
Codec ID/Info : UTF-8 Plain Text
Duration : 1 h 40 min
Bit rate : 63 b/s
Count of elements : 1352
Stream size : 46.5 KiB (0%)
Language : Spanish
Default : No
Forced : No

Text #7
ID : 10
Format : UTF-8
Codec ID : S_TEXT/UTF8
Codec ID/Info : UTF-8 Plain Text
Duration : 1 h 40 min
Bit rate : 71 b/s
Count of elements : 1337
Stream size : 52.3 KiB (0%)
Title : European
Language : Spanish
Default : No
Forced : No

Text #8
ID : 11
Format : UTF-8
Codec ID : S_TEXT/UTF8
Codec ID/Info : UTF-8 Plain Text
Duration : 1 h 39 min
Bit rate : 66 b/s
Count of elements : 1274
Stream size : 48.7 KiB (0%)
Language : Finnish
Default : No
Forced : No

Text #9
ID : 12
Format : UTF-8
Codec ID : S_TEXT/UTF8
Codec ID/Info : UTF-8 Plain Text
Duration : 1 h 40 min
Bit rate : 75 b/s
Count of elements : 1346
Stream size : 55.3 KiB (0%)
Language : French
Default : No
Forced : No

Text #10
ID : 13
Format : UTF-8
Codec ID : S_TEXT/UTF8
Codec ID/Info : UTF-8 Plain Text
Duration : 1 h 40 min
Bit rate : 109 b/s
Count of elements : 1358
Stream size : 80.4 KiB (0%)
Language : Hebrew
Default : No
Forced : No

Text #11
ID : 14
Format : UTF-8
Codec ID : S_TEXT/UTF8
Codec ID/Info : UTF-8 Plain Text
Duration : 1 h 40 min
Bit rate : 72 b/s
Count of elements : 1322
Stream size : 53.2 KiB (0%)
Language : Italian
Default : No
Forced : No

Text #12
ID : 15
Format : UTF-8
Codec ID : S_TEXT/UTF8
Codec ID/Info : UTF-8 Plain Text
Duration : 1 h 39 min
Bit rate : 102 b/s
Count of elements : 1778
Stream size : 74.8 KiB (0%)
Title : SDH
Language : Japanese
Default : No
Forced : No

Text #13
ID : 16
Format : UTF-8
Codec ID : S_TEXT/UTF8
Codec ID/Info : UTF-8 Plain Text
Duration : 1 h 40 min
Bit rate : 66 b/s
Count of elements : 1306
Stream size : 48.5 KiB (0%)
Language : Korean
Default : No
Forced : No

Text #14
ID : 17
Format : UTF-8
Codec ID : S_TEXT/UTF8
Codec ID/Info : UTF-8 Plain Text
Duration : 1 h 40 min
Bit rate : 62 b/s
Count of elements : 1311
Stream size : 46.0 KiB (0%)
Language : Norwegian Bokmal
Default : No
Forced : No

Text #15
ID : 18
Format : UTF-8
Codec ID : S_TEXT/UTF8
Codec ID/Info : UTF-8 Plain Text
Duration : 1 h 39 min
Bit rate : 51 b/s
Count of elements : 1197
Stream size : 38.0 KiB (0%)
Language : Dutch
Default : No
Forced : No

Text #16
ID : 19
Format : UTF-8
Codec ID : S_TEXT/UTF8
Codec ID/Info : UTF-8 Plain Text
Duration : 1 h 39 min
Bit rate : 52 b/s
Count of elements : 1316
Stream size : 38.3 KiB (0%)
Language : Polish
Default : No
Forced : No

Text #17
ID : 20
Format : UTF-8
Codec ID : S_TEXT/UTF8
Codec ID/Info : UTF-8 Plain Text
Duration : 1 h 39 min
Bit rate : 64 b/s
Count of elements : 1293
Stream size : 47.1 KiB (0%)
Language : Portuguese
Default : No
Forced : No

Text #18
ID : 21
Format : UTF-8
Codec ID : S_TEXT/UTF8
Codec ID/Info : UTF-8 Plain Text
Duration : 1 h 40 min
Bit rate : 65 b/s
Count of elements : 1279
Stream size : 48.2 KiB (0%)
Title : Brazilian
Language : Portuguese
Default : No
Forced : No

Text #19
ID : 22
Format : UTF-8
Codec ID : S_TEXT/UTF8
Codec ID/Info : UTF-8 Plain Text
Duration : 1 h 40 min
Bit rate : 65 b/s
Count of elements : 1113
Stream size : 48.1 KiB (0%)
Language : Swedish
Default : No
Forced : No

Text #20
ID : 23
Format : UTF-8
Codec ID : S_TEXT/UTF8
Codec ID/Info : UTF-8 Plain Text
Duration : 1 h 40 min
Bit rate : 159 b/s
Count of elements : 1359
Stream size : 117 KiB (0%)
Language : Thai
Default : No
Forced : No

Text #21
ID : 24
Format : UTF-8
Codec ID : S_TEXT/UTF8
Codec ID/Info : UTF-8 Plain Text
Duration : 1 h 40 min
Bit rate : 67 b/s
Count of elements : 1353
Stream size : 49.4 KiB (0%)
Language : Turkish
Default : No
Forced : No

Text #22
ID : 25
Format : UTF-8
Codec ID : S_TEXT/UTF8
Codec ID/Info : UTF-8 Plain Text
Duration : 1 h 40 min
Bit rate : 57 b/s
Count of elements : 1352
Stream size : 42.2 KiB (0%)
Title : Simplified
Language : Chinese
Default : No
Forced : No

Text #23
ID : 26
Format : UTF-8
Codec ID : S_TEXT/UTF8
Codec ID/Info : UTF-8 Plain Text
Duration : 1 h 40 min
Bit rate : 65 b/s
Count of elements : 1353
Stream size : 47.6 KiB (0%)
Title : Traditional
Language : Chinese
Default : No
Forced : No

[collapse]
Download Link(s)

Download

Direct download files get automatically deleted after a month or so. Posted on : 02/20/2019

[collapse]
Magnet Link

Magnet

Godzilla.City.on.the.Edge.of.Battle.2018.JAPANESE.1080p.NF.WEBRip.DDP5.1.x264-NTG-3.11 GB

[collapse]

Media information

General
Format : Matroska
Format version : Version 4
File size : 806 MiB
Duration : 1 h 40 min
Overall bit rate : 1 117 kb/s
Movie name : Godzilla.City.on.the.Edge.of.Battle.2018.720p.WEB-DL.2CH.x264.AVC
Encoded date : UTC 2019-01-09 18:08:03
Writing application : mkvmerge v30.1.0 (‘Forever And More’) 32-bit
Writing library : libebml v1.3.6 + libmatroska v1.4.9

Video
ID : 25
Format : AVC
Format/Info : Advanced Video Codec
Format profile : [email protected]
Format settings : CABAC / 5 Ref Frames
Format settings, CABAC : Yes
Format settings, RefFrames : 5 frames
Codec ID : V_MPEG4/ISO/AVC
Duration : 1 h 40 min
Bit rate : 1 048 kb/s
Width : 1 280 pixels
Height : 720 pixels
Display aspect ratio : 16:9
Frame rate mode : Constant
Frame rate : 24.000 FPS
Color space : YUV
Chroma subsampling : 4:2:0
Bit depth : 8 bits
Scan type : Progressive
Bits/(Pixel*Frame) : 0.047
Stream size : 756 MiB (94%)
Default : Yes
Forced : No
Color range : Limited
Color primaries : BT.709
Transfer characteristics : BT.709
Matrix coefficients : BT.709

Audio
ID : 1
Format : AAC LC SBR
Commercial name : HE-AAC
Format settings : Explicit
Codec ID : A_AAC-2
Duration : 1 h 40 min
Bit rate : 64.0 kb/s
Channel(s) : 2 channels
Channel layout : L R
Sampling rate : 48.0 kHz
Frame rate : 23.438 FPS (2048 SPF)
Compression mode : Lossy
Delay relative to video : 31 ms
Stream size : 46.1 MiB (6%)
Language : Japanese
Default : Yes
Forced : No

Text #1
ID : 2
Format : UTF-8
Codec ID : S_TEXT/UTF8
Codec ID/Info : UTF-8 Plain Text
Duration : 1 h 39 min
Bit rate : 70 b/s
Count of elements : 1351
Stream size : 51.8 KiB (0%)
Language : English
Default : Yes
Forced : No

Text #2
ID : 3
Format : UTF-8
Codec ID : S_TEXT/UTF8
Codec ID/Info : UTF-8 Plain Text
Duration : 1 h 40 min
Bit rate : 118 b/s
Count of elements : 1354
Stream size : 86.8 KiB (0%)
Language : Arabic
Default : No
Forced : No

Text #3
ID : 4
Format : UTF-8
Codec ID : S_TEXT/UTF8
Codec ID/Info : UTF-8 Plain Text
Duration : 1 h 40 min
Bit rate : 64 b/s
Count of elements : 1331
Stream size : 47.4 KiB (0%)
Language : Danish
Default : No
Forced : No

Text #4
ID : 5
Format : UTF-8
Codec ID : S_TEXT/UTF8
Codec ID/Info : UTF-8 Plain Text
Duration : 1 h 40 min
Bit rate : 68 b/s
Count of elements : 1342
Stream size : 50.4 KiB (0%)
Language : German
Default : No
Forced : No

Text #5
ID : 6
Format : UTF-8
Codec ID : S_TEXT/UTF8
Codec ID/Info : UTF-8 Plain Text
Duration : 1 h 40 min
Bit rate : 118 b/s
Count of elements : 1361
Stream size : 86.8 KiB (0%)
Language : Greek
Default : No
Forced : No

Text #6
ID : 7
Format : UTF-8
Codec ID : S_TEXT/UTF8
Codec ID/Info : UTF-8 Plain Text
Duration : 1 h 40 min
Bit rate : 63 b/s
Count of elements : 1352
Stream size : 46.5 KiB (0%)
Language : Spanish
Default : No
Forced : No

Text #7
ID : 8
Format : UTF-8
Codec ID : S_TEXT/UTF8
Codec ID/Info : UTF-8 Plain Text
Duration : 1 h 40 min
Bit rate : 71 b/s
Count of elements : 1337
Stream size : 52.3 KiB (0%)
Title : European
Language : Spanish
Default : No
Forced : No

Text #8
ID : 9
Format : UTF-8
Codec ID : S_TEXT/UTF8
Codec ID/Info : UTF-8 Plain Text
Duration : 1 h 39 min
Bit rate : 66 b/s
Count of elements : 1274
Stream size : 48.7 KiB (0%)
Language : Finnish
Default : No
Forced : No

Text #9
ID : 10
Format : UTF-8
Codec ID : S_TEXT/UTF8
Codec ID/Info : UTF-8 Plain Text
Duration : 1 h 40 min
Bit rate : 75 b/s
Count of elements : 1346
Stream size : 55.3 KiB (0%)
Language : French
Default : No
Forced : No

Text #10
ID : 11
Format : UTF-8
Codec ID : S_TEXT/UTF8
Codec ID/Info : UTF-8 Plain Text
Duration : 1 h 40 min
Bit rate : 109 b/s
Count of elements : 1358
Stream size : 80.4 KiB (0%)
Language : Hebrew
Default : No
Forced : No

Text #11
ID : 12
Format : UTF-8
Codec ID : S_TEXT/UTF8
Codec ID/Info : UTF-8 Plain Text
Duration : 1 h 40 min
Bit rate : 72 b/s
Count of elements : 1322
Stream size : 53.2 KiB (0%)
Language : Italian
Default : No
Forced : No

Text #12
ID : 13
Format : UTF-8
Codec ID : S_TEXT/UTF8
Codec ID/Info : UTF-8 Plain Text
Duration : 1 h 39 min
Bit rate : 102 b/s
Count of elements : 1778
Stream size : 74.8 KiB (0%)
Title : SDH
Language : Japanese
Default : No
Forced : No

Text #13
ID : 14
Format : UTF-8
Codec ID : S_TEXT/UTF8
Codec ID/Info : UTF-8 Plain Text
Duration : 1 h 40 min
Bit rate : 66 b/s
Count of elements : 1306
Stream size : 48.5 KiB (0%)
Language : Korean
Default : No
Forced : No

Text #14
ID : 15
Format : UTF-8
Codec ID : S_TEXT/UTF8
Codec ID/Info : UTF-8 Plain Text
Duration : 1 h 40 min
Bit rate : 62 b/s
Count of elements : 1311
Stream size : 46.0 KiB (0%)
Language : Norwegian Bokmal
Default : No
Forced : No

Text #15
ID : 16
Format : UTF-8
Codec ID : S_TEXT/UTF8
Codec ID/Info : UTF-8 Plain Text
Duration : 1 h 39 min
Bit rate : 51 b/s
Count of elements : 1197
Stream size : 38.0 KiB (0%)
Language : Dutch
Default : No
Forced : No

Text #16
ID : 17
Format : UTF-8
Codec ID : S_TEXT/UTF8
Codec ID/Info : UTF-8 Plain Text
Duration : 1 h 39 min
Bit rate : 52 b/s
Count of elements : 1316
Stream size : 38.3 KiB (0%)
Language : Polish
Default : No
Forced : No

Text #17
ID : 18
Format : UTF-8
Codec ID : S_TEXT/UTF8
Codec ID/Info : UTF-8 Plain Text
Duration : 1 h 39 min
Bit rate : 64 b/s
Count of elements : 1293
Stream size : 47.1 KiB (0%)
Language : Portuguese
Default : No
Forced : No

Text #18
ID : 19
Format : UTF-8
Codec ID : S_TEXT/UTF8
Codec ID/Info : UTF-8 Plain Text
Duration : 1 h 40 min
Bit rate : 65 b/s
Count of elements : 1279
Stream size : 48.2 KiB (0%)
Title : Brazilian
Language : Portuguese
Default : No
Forced : No

Text #19
ID : 20
Format : UTF-8
Codec ID : S_TEXT/UTF8
Codec ID/Info : UTF-8 Plain Text
Duration : 1 h 40 min
Bit rate : 65 b/s
Count of elements : 1113
Stream size : 48.1 KiB (0%)
Language : Swedish
Default : No
Forced : No

Text #20
ID : 21
Format : UTF-8
Codec ID : S_TEXT/UTF8
Codec ID/Info : UTF-8 Plain Text
Duration : 1 h 40 min
Bit rate : 159 b/s
Count of elements : 1359
Stream size : 117 KiB (0%)
Language : Thai
Default : No
Forced : No

Text #21
ID : 22
Format : UTF-8
Codec ID : S_TEXT/UTF8
Codec ID/Info : UTF-8 Plain Text
Duration : 1 h 40 min
Bit rate : 67 b/s
Count of elements : 1353
Stream size : 49.4 KiB (0%)
Language : Turkish
Default : No
Forced : No

Text #22
ID : 23
Format : UTF-8
Codec ID : S_TEXT/UTF8
Codec ID/Info : UTF-8 Plain Text
Duration : 1 h 40 min
Bit rate : 57 b/s
Count of elements : 1352
Stream size : 42.2 KiB (0%)
Title : Simplified
Language : Chinese
Default : No
Forced : No

Text #23
ID : 24
Format : UTF-8
Codec ID : S_TEXT/UTF8
Codec ID/Info : UTF-8 Plain Text
Duration : 1 h 40 min
Bit rate : 65 b/s
Count of elements : 1353
Stream size : 47.6 KiB (0%)
Title : Traditional
Language : Chinese
Default : No
Forced : No

[collapse]
Download Link(s)

Download

Direct download files get automatically deleted after a month or so. Posted on : 01/09/2019

[collapse]
Magnet Link

Magnet

Godzilla.City.on.the.Edge.of.Battle.2018.JAPANESE.1080p.NF.WEBRip.DDP5.1.x264-NTG-3.11 GB

[collapse]

You may also like...

error: nah :p~