How to Train Your Dragon Homecoming (2019)

TV-PG | 21min | Animation, Short, Action | TV Short 3 December 2019

Hiccup and Toothless reunite to remind both their kinds of the inseparable bond between vikings and dragons.

Watch trailer

Media information

General
Format : Matroska
Format version : Version 4
File size : 345 MiB
Duration : 21 min 37 s
Overall bit rate : 2 231 kb/s
Movie name : How.to.Train.Your.Dragon.Homecoming.2019.1080p.WEBRip.6CH.x265.HEVC
Encoded date : UTC 2019-12-05 19:17:08
Writing application : mkvmerge v40.0.0 (‘Old Town Road + Pony’) 32-bit
Writing library : libebml v1.3.9 + libmatroska v1.5.2

Video
ID : 1
Format : HEVC
Format/Info : High Efficiency Video Coding
Format profile : [email protected]@Main
Codec ID : V_MPEGH/ISO/HEVC
Duration : 21 min 37 s
Bit rate : 2 022 kb/s
Width : 1 920 pixels
Height : 1 080 pixels
Display aspect ratio : 16:9
Frame rate mode : Constant
Frame rate : 23.976 (24000/1001) FPS
Color space : YUV
Chroma subsampling : 4:2:0
Bit depth : 8 bits
Bits/(Pixel*Frame) : 0.041
Stream size : 313 MiB (91%)
Default : Yes
Forced : No

Audio
ID : 2
Format : AAC LC SBR
Commercial name : HE-AAC
Format settings : Explicit
Codec ID : A_AAC-2
Duration : 21 min 37 s
Bit rate : 207 kb/s
Channel(s) : 6 channels
Channel layout : C L R Ls Rs LFE
Sampling rate : 48.0 kHz
Frame rate : 23.438 FPS (2048 SPF)
Compression mode : Lossy
Delay relative to video : 23 ms
Stream size : 32.1 MiB (9%)
Language : English
Default : Yes
Forced : No

Text
ID : 3
Format : UTF-8
Codec ID : S_TEXT/UTF8
Codec ID/Info : UTF-8 Plain Text
Duration : 21 min 11 s
Bit rate : 84 b/s
Count of elements : 439
Stream size : 13.1 KiB (0%)
Language : English
Default : Yes
Forced : No

[collapse]
Download Link(s)

Download

Direct download files get automatically deleted after a month or so. Posted on : 12/05/2019

[collapse]
Magnet Link

Magnet

How.to.Train.Your.Dragon.Homecoming.2019.1080p.WEB.h264-TRUMP-765.81 MB

[collapse]

Media information

General
Format : Matroska
Format version : Version 4
File size : 171 MiB
Duration : 21 min 37 s
Overall bit rate : 1 108 kb/s
Movie name : How.to.Train.Your.Dragon.Homecoming.2019.720p.WEBRip.2CH.x265.HEVC
Encoded date : UTC 2019-12-05 15:34:05
Writing application : mkvmerge v40.0.0 (‘Old Town Road + Pony’) 32-bit
Writing library : libebml v1.3.9 + libmatroska v1.5.2

Video
ID : 1
Format : HEVC
Format/Info : High Efficiency Video Coding
Format profile : [email protected]@Main
Codec ID : V_MPEGH/ISO/HEVC
Duration : 21 min 37 s
Bit rate : 1 037 kb/s
Width : 1 280 pixels
Height : 720 pixels
Display aspect ratio : 16:9
Frame rate mode : Constant
Frame rate : 23.976 (24000/1001) FPS
Color space : YUV
Chroma subsampling : 4:2:0
Bit depth : 8 bits
Bits/(Pixel*Frame) : 0.047
Stream size : 160 MiB (94%)
Default : Yes
Forced : No

Audio
ID : 2
Format : AAC LC SBR
Commercial name : HE-AAC
Format settings : Explicit
Codec ID : A_AAC-2
Duration : 21 min 37 s
Bit rate : 68.6 kb/s
Channel(s) : 2 channels
Channel layout : L R
Sampling rate : 48.0 kHz
Frame rate : 23.438 FPS (2048 SPF)
Compression mode : Lossy
Delay relative to video : 23 ms
Stream size : 10.6 MiB (6%)
Language : English
Default : Yes
Forced : No

Text
ID : 3
Format : UTF-8
Codec ID : S_TEXT/UTF8
Codec ID/Info : UTF-8 Plain Text
Duration : 21 min 11 s
Bit rate : 84 b/s
Count of elements : 439
Stream size : 13.1 KiB (0%)
Language : English
Default : Yes
Forced : No

[collapse]
Download Link(s)

Download

Direct download files get automatically deleted after a month or so. Posted on : 12/05/2019

[collapse]
Magnet Link

Magnet

How.to.Train.Your.Dragon.Homecoming.2019.1080p.WEB.h264-TRUMP-765.81 MB

[collapse]

You may also like...

error: nah :p~