In This Corner of the World (2016)


Kono sekai no katasumi ni (original title)|PG-13 | 2h 9min | Animation, Drama, Family | 12 November 2016 (Japan)

Set in Hiroshima during World War II, an eighteen-year-old girl gets married and now has to prepare food for her family despite the rationing and lack of supplies. As she struggles with the daily loss of life’s amenities she still has to maintain the will to live.

Watch trailer

Media information

General
Format : Matroska
Format version : Version 4
File size : 465 MiB
Duration : 2 h 9 min
Overall bit rate : 502 kb/s
Movie name : Kono.Sekai.No Katasumi.Ni.-.In.This.Corner.Of.The World.720p.BluRay.2CH.x265.HEVC

Video
ID : 1
Format : HEVC
Format/Info : High Efficiency Video Coding
Format profile : [email protected]@Main
Codec ID : V_MPEGH/ISO/HEVC
Duration : 2 h 9 min
Bit rate : 392 kb/s
Width : 1 280 pixels
Height : 720 pixels
Display aspect ratio : 16:9
Frame rate mode : Constant
Frame rate : 23.976 (24000/1001) FPS
Color space : YUV
Chroma subsampling : 4:2:0
Bit depth : 8 bits
Bits/(Pixel*Frame) : 0.018
Stream size : 363 MiB (78%)
Default : Yes
Forced : No
Color range : Limited
Color primaries : BT.709
Transfer characteristics : BT.709
Matrix coefficients : BT.709

Audio
ID : 2
Format : Opus
Codec ID : A_OPUS
Duration : 2 h 9 min
Bit rate : 108 kb/s
Channel(s) : 2 channels
Channel layout : L R
Sampling rate : 48.0 kHz
Frame rate : 50.000 FPS (960 SPF)
Compression mode : Lossy
Delay relative to video : -7 ms
Stream size : 100 MiB (22%)
Title : Stereo
Language : Japanese
Default : Yes
Forced : No

Text
ID : 3
Format : ASS
Codec ID : S_TEXT/ASS
Duration : 2 h 5 min
Bit rate : 145 b/s
Count of elements : 2000
Compression mode : Lossless
Stream size : 134 KiB (0%)
Language : English
Default : Yes
Forced : Yes

[collapse]
Download Link(s)

Download

[RE-UP]-Direct download files get automatically deleted after a month or so. Posted on: 01/26/2020

[collapse]
Magnet Link

Magnet

Kono.Sekai.no.Katasumi.ni.-.In.this.Corner.of.the.World.BDRip.1080p.x264.H10P.AAC-1.5 GiB

[collapse]

You may also like...

error: nah :p~