Lady and the Tramp (2019)

PG | 1h 43min | Adventure, Comedy, Drama | 12 November 2019 (USA)

CGI and live-action re-imagining of the 1955 Disney classic.

Watch trailer

Media information

General
Format : Matroska
Format version : Version 4
File size : 1.59 GiB
Duration : 1 h 44 min
Overall bit rate : 2 177 kb/s
Movie name : Lady.and.the.Tramp.2019.1080p.10bit.WEBRip.6CH.x265.HEVC

Video
ID : 1
Format : HEVC
Format/Info : High Efficiency Video Coding
Format profile : Main [email protected]@Main
Codec ID : V_MPEGH/ISO/HEVC
Duration : 1 h 44 min
Bit rate : 1 967 kb/s
Width : 1 920 pixels
Height : 960 pixels
Display aspect ratio : 2.000
Frame rate mode : Constant
Frame rate : 23.976 (24000/1001) FPS
Color space : YUV
Chroma subsampling : 4:2:0
Bit depth : 10 bits
Bits/(Pixel*Frame) : 0.045
Stream size : 1.44 GiB (90%)
Default : Yes
Forced : No
Color range : Limited
Color primaries : BT.709
Transfer characteristics : BT.709
Matrix coefficients : BT.709

Audio
ID : 2
Format : AAC LC SBR
Commercial name : HE-AAC
Format settings : Explicit
Codec ID : A_AAC-2
Duration : 1 h 44 min
Bit rate : 208 kb/s
Channel(s) : 6 channels
Channel layout : C L R Ls Rs LFE
Sampling rate : 48.0 kHz
Frame rate : 23.438 FPS (2048 SPF)
Compression mode : Lossy
Delay relative to video : 23 ms
Stream size : 156 MiB (10%)
Language : English
Default : Yes
Forced : No

Text
ID : 3
Format : UTF-8
Codec ID : S_TEXT/UTF8
Codec ID/Info : UTF-8 Plain Text
Duration : 1 h 40 min
Bit rate : 74 b/s
Count of elements : 1804
Stream size : 54.9 KiB (0%)
Language : English
Default : Yes
Forced : No

[collapse]
Download Link(s)

Download

Direct download files get automatically deleted after a month or so. Posted on : 02/24/2020

[collapse]
Magnet Link

Magnet

Lady.and.the.Tramp.2019.1080p.WEBRip.DDP5.1.Atmos.x264-NOGRP-6.65 GB

[collapse]

Media information

General
Format : Matroska
Format version : Version 4
File size : 865 MiB
Duration : 1 h 44 min
Overall bit rate : 1 156 kb/s
Movie name : Lady.and.the.Tramp.2019.720p.10bit.WEBRip.6CH.x265.HEVC

Video
ID : 1
Format : HEVC
Format/Info : High Efficiency Video Coding
Format profile : Main [email protected]@Main
Codec ID : V_MPEGH/ISO/HEVC
Duration : 1 h 44 min
Bit rate : 946 kb/s
Width : 1 280 pixels
Height : 640 pixels
Display aspect ratio : 2.000
Frame rate mode : Constant
Frame rate : 23.976 (24000/1001) FPS
Color space : YUV
Chroma subsampling : 4:2:0
Bit depth : 10 bits
Bits/(Pixel*Frame) : 0.048
Stream size : 707 MiB (82%)
Default : Yes
Forced : No
Color range : Limited
Color primaries : BT.709
Transfer characteristics : BT.709
Matrix coefficients : BT.709

Audio
ID : 2
Format : AAC LC SBR
Commercial name : HE-AAC
Format settings : Explicit
Codec ID : A_AAC-2
Duration : 1 h 44 min
Bit rate : 208 kb/s
Channel(s) : 6 channels
Channel layout : C L R Ls Rs LFE
Sampling rate : 48.0 kHz
Frame rate : 23.438 FPS (2048 SPF)
Compression mode : Lossy
Delay relative to video : 23 ms
Stream size : 156 MiB (18%)
Language : English
Default : Yes
Forced : No

Text
ID : 3
Format : UTF-8
Codec ID : S_TEXT/UTF8
Codec ID/Info : UTF-8 Plain Text
Duration : 1 h 40 min
Bit rate : 74 b/s
Count of elements : 1804
Stream size : 54.9 KiB (0%)
Language : English
Default : Yes
Forced : No

[collapse]
Download Link(s)

Download

Direct download files get automatically deleted after a month or so. Posted on : 02/23/2020

[collapse]
Magnet Link

Magnet

Lady.and.the.Tramp.2019.1080p.WEBRip.DDP5.1.Atmos.x264-NOGRP-6.65 GB

[collapse]

Media information

General
Format : Matroska
Format version : Version 4
File size : 691 MiB
Duration : 1 h 42 min
Overall bit rate : 940 kb/s
Movie name : Lady.and.the.Tramp.2019.iNTERNAL.720p.WEB-DL.2CH.x265.HEVC
Encoded date : UTC 2019-11-15 07:31:29
Writing application : mkvmerge v40.0.0 (‘Old Town Road + Pony’) 32-bit
Writing library : libebml v1.3.9 + libmatroska v1.5.2

Video
ID : 1
Format : HEVC
Format/Info : High Efficiency Video Coding
Format profile : [email protected]@Main
Codec ID : V_MPEGH/ISO/HEVC
Duration : 1 h 42 min
Bit rate : 873 kb/s
Width : 1 280 pixels
Height : 640 pixels
Display aspect ratio : 2.000
Frame rate mode : Constant
Frame rate : 23.976 (24000/1001) FPS
Color space : YUV
Chroma subsampling : 4:2:0
Bit depth : 8 bits
Bits/(Pixel*Frame) : 0.044
Stream size : 642 MiB (93%)
Default : Yes
Forced : No
Color range : Limited
Color primaries : BT.709
Transfer characteristics : BT.709
Matrix coefficients : BT.709

Audio
ID : 2
Format : AAC LC
Codec ID : A_AAC-2
Duration : 1 h 42 min
Bit rate : 64.3 kb/s
Channel(s) : 2 channels
Channel layout : L R
Sampling rate : 48.0 kHz
Frame rate : 46.875 FPS (1024 SPF)
Compression mode : Lossy
Delay relative to video : -21 ms
Stream size : 47.3 MiB (7%)
Title : Stereo
Language : English
Default : Yes
Forced : No

Text #1
ID : 3
Format : ASS
Codec ID : S_TEXT/ASS
Duration : 1 h 40 min
Bit rate : 124 b/s
Count of elements : 1803
Compression mode : Lossless
Stream size : 91.3 KiB (0%)
Language : English
Default : Yes
Forced : Yes

Text #2
ID : 4
Format : ASS
Codec ID : S_TEXT/ASS
Duration : 1 h 41 min
Bit rate : 89 b/s
Count of elements : 1461
Compression mode : Lossless
Stream size : 66.4 KiB (0%)
Language : French
Default : No
Forced : No

Text #3
ID : 5
Format : ASS
Codec ID : S_TEXT/ASS
Duration : 1 h 41 min
Bit rate : 85 b/s
Count of elements : 1180
Compression mode : Lossless
Stream size : 63.4 KiB (0%)
Language : Dutch
Default : No
Forced : No

[collapse]
Download Link(s)

Download

Direct download files get automatically deleted after a month or so. Posted on : 11/15/2019

[collapse]
Magnet Link

Magnet

Lady.and.the.Tramp.2019.iNTERNAL.720p.WEB.H264-AMRAP-3.22 GB

[collapse]

You may also like...

error: nah :p~