Mirai (2018)

Mirai no Mirai (original title)|PG | 1h 38min | Animation, Adventure, Drama | 20 July 2018 (Japan)

A young boy encounters a magical garden which enables him to travel through time and meet his relatives from different eras, with guidance by his younger sister from the future.

Watch trailer

Media information

General
Format : Matroska
Format version : Version 4
File size : 902 MiB
Duration : 1 h 37 min
Overall bit rate : 1 287 kb/s
Movie name : Mirai.no.Mirai.2018.720p.BluRay.2CH.x264.AVC
Encoded date : UTC 2019-02-20 13:26:12
Writing application : mkvmerge v31.0.0 (‘Dolores In A Shoestand’) 32-bit
Writing library : libebml v1.3.6 + libmatroska v1.4.9

Video
ID : 1
Format : AVC
Format/Info : Advanced Video Codec
Format profile : [email protected]
Format settings : CABAC / 9 Ref Frames
Format settings, CABAC : Yes
Format settings, RefFrames : 9 frames
Codec ID : V_MPEG4/ISO/AVC
Duration : 1 h 37 min
Bit rate : 1 170 kb/s
Width : 1 280 pixels
Height : 692 pixels
Display aspect ratio : 1.85:1
Frame rate mode : Constant
Frame rate : 23.976 (24000/1001) FPS
Color space : YUV
Chroma subsampling : 4:2:0
Bit depth : 8 bits
Scan type : Progressive
Bits/(Pixel*Frame) : 0.055
Stream size : 820 MiB (91%)
Default : Yes
Forced : No

Audio
ID : 2
Format : AAC LC SBR
Commercial name : HE-AAC
Format settings : Explicit
Codec ID : A_AAC-2
Duration : 1 h 37 min
Bit rate : 100.0 kb/s
Channel(s) : 2 channels
Channel layout : L R
Sampling rate : 48.0 kHz
Frame rate : 23.438 FPS (2048 SPF)
Compression mode : Lossy
Delay relative to video : 43 ms
Stream size : 70.1 MiB (8%)
Language : Japanese
Default : Yes
Forced : No

Text #1
ID : 3
Format : UTF-8
Codec ID : S_TEXT/UTF8
Codec ID/Info : UTF-8 Plain Text
Duration : 1 h 37 min
Bit rate : 34 b/s
Count of elements : 1233
Stream size : 24.4 KiB (0%)
Language : English
Default : Yes
Forced : No

Text #2
ID : 4
Format : ASS
Codec ID : S_TEXT/ASS
Duration : 1 h 37 min
Bit rate : 83 b/s
Count of elements : 1463
Compression mode : Lossless
Stream size : 59.8 KiB (0%)
Title : chs
Language : Chinese
Default : No
Forced : No

Text #3
ID : 5
Format : ASS
Codec ID : S_TEXT/ASS
Duration : 1 h 37 min
Bit rate : 83 b/s
Count of elements : 1463
Compression mode : Lossless
Stream size : 59.8 KiB (0%)
Title : cht
Language : Chinese
Default : No
Forced : No

Text #4
ID : 6
Format : PGS
Muxing mode : zlib
Codec ID : S_HDMV/PGS
Duration : 1 h 36 min
Bit rate : 35.8 kb/s
Count of elements : 3070
Stream size : 24.8 MiB (3%)
Language : Japanese
Default : No
Forced : No

[collapse]
Download Link(s)

Download

Direct download files get automatically deleted after a month or so. Posted on : 02/20/2019

[collapse]
Magnet Link

Magnet

Mirai.2018.JAPANESE.1080p.BluRay.x264.DTS-WiKi-6.91 GB

[collapse]

You may also like...

error: nah :p~