Penguin Land (2019)

Animation | 15 October 2019 (USA)

Zooey and Flip are two young penguins on a mission. With Christmas right around the corner, they set out to fulfill their colony’s fish quota, making sure each and every penguin has a holiday feast that fills their bellies and warms their wings. But, there’s one problem – Zooey and Flip can’t catch any fish. Hatching a plan to plant a community garden of shared ice vegetables, Zooey believes she has the answer to Penguin Land’s fish shortage. So pull on your snow shoes and come visit Penguinland, where fun and adventure forever grow.

Watch trailer

Media information

General
Format : Matroska
Format version : Version 4
File size : 618 MiB
Duration : 1 h 10 min
Overall bit rate : 1 235 kb/s
Movie name : Penguin.Land.2019.720p.WEB-DL.2CH.x264.AVC
Encoded date : UTC 2019-10-17 08:27:25
Writing application : mkvmerge v38.0.0 (‘The Silent Type’) 32-bit
Writing library : libebml v1.3.9 + libmatroska v1.5.2

Video
ID : 1
Format : AVC
Format/Info : Advanced Video Codec
Format profile : [email protected]
Format settings : CABAC / 4 Ref Frames
Format settings, CABAC : Yes
Format settings, Reference frames : 4 frames
Codec ID : V_MPEG4/ISO/AVC
Duration : 1 h 10 min
Bit rate : 1 100 kb/s
Width : 1 280 pixels
Height : 718 pixels
Display aspect ratio : 16:9
Frame rate mode : Constant
Frame rate : 23.976 (24000/1001) FPS
Color space : YUV
Chroma subsampling : 4:2:0
Bit depth : 8 bits
Scan type : Progressive
Bits/(Pixel*Frame) : 0.050
Stream size : 553 MiB (89%)
Default : Yes
Forced : No
Color range : Limited
Color primaries : BT.709
Transfer characteristics : BT.709
Matrix coefficients : BT.709

Audio
ID : 2
Format : AAC LC
Codec ID : A_AAC-2
Duration : 1 h 10 min
Bit rate : 128 kb/s
Channel(s) : 2 channels
Channel layout : L R
Sampling rate : 48.0 kHz
Frame rate : 46.875 FPS (1024 SPF)
Compression mode : Lossy
Delay relative to video : -21 ms
Stream size : 64.2 MiB (10%)
Language : English
Default : Yes
Forced : No

Text
ID : 3
Format : ASS
Codec ID : S_TEXT/ASS
Duration : 1 h 9 min
Bit rate : 171 b/s
Count of elements : 1476
Compression mode : Lossless
Stream size : 87.0 KiB (0%)
Language : English
Default : Yes
Forced : No

[collapse]
Download Link(s)

Download

Direct download files get automatically deleted after a month or so. Posted on : 10/18/2019

[collapse]
Magnet Link

Magnet

Penguin.Land.2019.1080p.WEB-DL.H264.AC3-EVO-2.6 GB

[collapse]

You may also like...

error: nah :p~