Pokemon the Movie: I Choose You! (2017)

Gekijouban Poketto monsutâ: Kimi ni kimeta! (original title)
1h 52min | Animation, Action, Adventure | 5 November 2017 (USA)

Ash Ketchum from Pallet Town is 10 years old today. This means he is now old enough to become a Pokémon Trainer. Ash dreams big about the adventures he will experience after receiving his first Pokémon from Professor Oak.

Watch trailer

Media information

General
Format : Matroska
Format version : Version 4 / Version 2
File size : 753 MiB
Duration : 1 h 32 min
Overall bit rate : 1 136 kb/s
Movie name : Pokemon.The.Movie.2017.720p.WEB-DL.2CH.x264.AVC
Encoded date : UTC 2018-06-10 20:31:33
Writing application : mkvmerge v24.0.0 (‘Beyond The Pale’) 32-bit
Writing library : libebml v1.3.6 + libmatroska v1.4.9

Video
ID : 2
Format : AVC
Format/Info : Advanced Video Codec
Format profile : [email protected]
Format settings : CABAC / 8 Ref Frames
Format settings, CABAC : Yes
Format settings, RefFrames : 8 frames
Codec ID : V_MPEG4/ISO/AVC
Duration : 1 h 32 min
Bit rate : 1 070 kb/s
Width : 1 280 pixels
Height : 720 pixels
Display aspect ratio : 16:9
Frame rate mode : Constant
Frame rate : 24.000 FPS
Color space : YUV
Chroma subsampling : 4:2:0
Bit depth : 8 bits
Scan type : Progressive
Bits/(Pixel*Frame) : 0.048
Stream size : 709 MiB (94%)
Default : Yes
Forced : No
Color range : Limited
Color primaries : BT.709
Transfer characteristics : BT.709
Matrix coefficients : BT.709

Audio
ID : 1
Format : AAC
Format/Info : Advanced Audio Codec
Format profile : HE-AAC / LC
Format settings : Explicit
Codec ID : A_AAC-2
Duration : 1 h 32 min
Bit rate : 64.0 kb/s
Channel(s) : 2 channels
Channel positions : Front: L R
Sampling rate : 48.0 kHz / 24.0 kHz
Frame rate : 23.438 FPS (1024 SPF)
Compression mode : Lossy
Delay relative to video : 31 ms
Stream size : 42.4 MiB (6%)
Language : English
Default : Yes
Forced : No

Text
ID : 3
Format : UTF-8
Codec ID : S_TEXT/UTF8
Codec ID/Info : UTF-8 Plain Text
Duration : 1 h 31 min
Bit rate : 79 b/s
Count of elements : 1703
Stream size : 53.8 KiB (0%)
Language : English
Default : Yes
Forced : No

[collapse]
Download Link(s)

Download

[RE-UP] – Direct download files get automatically deleted after a month or so. Posted on : 06/10/2018

[collapse]
Magnet Link

Magnet

Source : Pokemon.the.Movie.I.Choose.You.2017.DUBBED.1080p.WEBRip.AAC-3.2 GB

[collapse]

You may also like...

error: nah :p~