Scooby-Doo! and WWE: Curse of the Speed Demon (2016)

Not Rated | 1h 20min | Animation, Adventure, Comedy | Video 9 August 2016

It’s pedal to the metal as Scooby-Doo, Shaggy and the gang team up with the superstars of WWE in this hi-octane, original movie! When Scooby and Mystery Inc. visit an off-road racing competition, it’s not long before strange events start to occur. A mysterious phantom racer, known only as Inferno, is causing chaos and determined to sabotage the race. It’s up Scooby-Doo, Shaggy and their new driving partner, The Undertaker, to save the race and solve the mystery. Along with other WWE superstars such as Triple H, Paige and Shamus, it’s time to start your engine and your appetite because Scooby-Doo and WWE are chasing down adventure and laughs just for you!

Watch trailer

Media information

General
Format : Matroska
Format version : Version 4 / Version 2
File size : 413 MiB
Duration : 1 h 20 min
Overall bit rate : 716 kb/s
Movie name : Scooby-Doo.And.WWE.Curse.of.the.Speed.Demon.2016.720p.10bit.BluRay.2CH.x265.HEVC
Encoded date : UTC 2018-08-30 18:02:11
Writing application : mkvmerge v26.0.0 (‘In The Game’) 32-bit
Writing library : libebml v1.3.6 + libmatroska v1.4.9

Video
ID : 1
Format : HEVC
Format/Info : High Efficiency Video Coding
Format profile : Main [email protected]@Main
Codec ID : V_MPEGH/ISO/HEVC
Duration : 1 h 20 min
Bit rate : 644 kb/s
Width : 1 280 pixels
Height : 720 pixels
Display aspect ratio : 16:9
Frame rate mode : Constant
Frame rate : 23.976 (24000/1001) FPS
Color space : YUV
Chroma subsampling : 4:2:0
Bit depth : 10 bits
Bits/(Pixel*Frame) : 0.029
Stream size : 371 MiB (90%)
Default : Yes
Forced : No
Color range : Limited
Color primaries : BT.709
Transfer characteristics : BT.709
Matrix coefficients : BT.709

Audio
ID : 2
Format : AAC
Format/Info : Advanced Audio Codec
Format profile : HE-AAC / LC
Format settings : Explicit
Codec ID : A_AAC-2
Duration : 1 h 20 min
Bit rate : 70.0 kb/s
Channel(s) : 2 channels
Channel positions : Front: L R
Sampling rate : 48.0 kHz / 24.0 kHz
Frame rate : 23.438 FPS (1024 SPF)
Compression mode : Lossy
Delay relative to video : 23 ms
Stream size : 40.3 MiB (10%)
Default : Yes
Forced : No

Text
ID : 3
Format : UTF-8
Codec ID : S_TEXT/UTF8
Codec ID/Info : UTF-8 Plain Text
Duration : 1 h 17 min
Bit rate : 80 b/s
Count of elements : 1237
Stream size : 45.8 KiB (0%)
Title : ENG
Language : English
Default : Yes
Forced : No

[collapse]
Download Link(s)

Download

Direct download files get automatically deleted after a month or so. Posted on : 08/30/2018

[collapse]
Magnet Link

Magnet

Source : Scooby-Doo.And.WWE.Curse.of.the.Speed.Demon.2016.1080p.BluRay.REMUX.AVC.DTS-HD.MA.5.1-FGT-10.86 GB

[collapse]

You may also like...

error: nah :p~